<?xml version="1.0" standalone="no"?>
<!DOCTYPE svg PUBLIC "-//W3C//DTD SVG 1.1//EN" "http://www.w3.org/Graphics/SVG/1.1/DTD/svg11.dtd" >
<svg xmlns="http://www.w3.org/2000/svg">
<metadata></metadata>
<defs>
<font id="banda_regularregular" horiz-adv-x="1421" >
<font-face units-per-em="2048" ascent="1700" descent="-348" />
<missing-glyph horiz-adv-x="614" />
<glyph unicode="&#xfb01;" horiz-adv-x="1026" d="M51 999q0 27 18 46.5t48 19.5h59v80q0 153 89 253.5t245 100.5q38 0 58 -1.5t58 -9.5t83 -29t102 -56q31 -23 31 -55q0 -26 -20.5 -45t-45.5 -19q-7 0 -15.5 2.5t-12.5 5.5l-5 2q-55 34 -99 51t-65.5 20t-52.5 3q-104 0 -160.5 -62.5t-56.5 -160.5v-80h420q55 0 83 -36.5 t28 -94.5v-782q0 -9 3.5 -15.5t6.5 -8.5l4 -3q39 -16 39 -59q0 -29 -20.5 -47.5t-49.5 -18.5q-54 0 -84 43t-30 100v775q0 6 -4.5 11t-10.5 5h-385v-791q0 -57 -30 -100t-84 -43q-29 0 -49.5 18.5t-20.5 47.5q0 43 39 59q14 7 14 27v782h-69q-25 0 -41.5 19.5t-16.5 45.5z " />
<glyph unicode="&#xfb02;" horiz-adv-x="1021" d="M51 997q0 29 19 48.5t47 19.5h51v74q0 96 37 178t113 135t176 53q139 0 239 -100q103 -103 103 -287v-966q0 -9 3.5 -15.5t6.5 -8.5l4 -3q39 -16 39 -59q0 -29 -20.5 -47.5t-49.5 -18.5q-54 0 -84 43t-30 100v987q0 107 -57.5 177t-158.5 67q-95 -3 -141 -69t-49 -166 v-74h233q29 0 48.5 -20t19.5 -48t-19.5 -45.5t-48.5 -17.5h-235v-791q0 -57 -30.5 -100t-84.5 -43q-28 0 -48.5 18.5t-20.5 47.5q0 43 39 59q14 7 14 27v782h-49q-28 0 -47 18t-19 45z" />
<glyph unicode="&#xfb03;" horiz-adv-x="1581" d="M51 999q0 27 18 46.5t48 19.5h59v94q0 71 17.5 131t52.5 108.5t94.5 76.5t138.5 28t156 -24q21 -6 35 -24t14 -42q0 -33 -27.5 -52t-60.5 -11q-77 22 -117 22q-93 0 -131.5 -51.5t-38.5 -161.5v-94h424v80q0 154 88 256t244 102q47 0 77 -4t89.5 -27t134.5 -69 q31 -23 31 -55q0 -26 -20.5 -45t-45.5 -19q-7 0 -15.5 2.5t-13.5 5.5l-4 2q-80 49 -127.5 64.5t-89.5 15.5q-95 0 -156 -70t-61 -159v-80h420q55 0 83 -33.5t28 -91.5v-788q0 -9 3.5 -15.5t7.5 -8.5l3 -3q39 -16 39 -59q0 -29 -20.5 -47.5t-49.5 -18.5q-54 0 -84 43t-30 100 v775q0 6 -4.5 11t-10.5 5h-385v-791q0 -57 -30 -100t-84 -43q-29 0 -49.5 18.5t-20.5 47.5q0 43 39 59q14 7 14 27v782h-424v-791q0 -57 -30 -100t-84 -43q-29 0 -49.5 18.5t-20.5 47.5q0 43 39 59q14 7 14 27v782h-69q-25 0 -41.5 19.5t-16.5 45.5z" />
<glyph unicode="&#xfb04;" horiz-adv-x="1585" d="M51 999q0 27 18 46.5t48 19.5h59v94q0 71 17.5 131t52.5 108.5t94.5 76.5t138.5 28t156 -24q21 -6 35 -24t14 -42q0 -33 -27.5 -52t-60.5 -11q-77 22 -117 22q-93 0 -131.5 -51.5t-38.5 -161.5v-94h426v74q2 71 24 136t62 116.5t102 82.5t138 31q160 0 252 -109t90 -278 v-968q0 -22 8 -25q17 -6 29 -24t12 -38q0 -28 -21.5 -45.5t-50.5 -17.5q-49 0 -78.5 41.5t-29.5 93.5v995q0 107 -57 177t-158 67q-95 -3 -141.5 -69t-49.5 -166v-74h234q29 0 48 -20t19 -48t-19 -45.5t-48 -17.5h-234v-791q0 -57 -30 -100t-84 -43q-29 0 -49.5 18.5 t-20.5 47.5q0 43 39 59q14 7 14 27v782h-426v-791q0 -57 -30 -100t-84 -43q-29 0 -49.5 18.5t-20.5 47.5q0 43 39 59q14 7 14 27v782h-69q-25 0 -41.5 19.5t-16.5 45.5z" />
<glyph horiz-adv-x="0" />
<glyph horiz-adv-x="682" />
<glyph horiz-adv-x="0" />
<glyph horiz-adv-x="0" />
<glyph unicode="&#xd;" horiz-adv-x="573" />
<glyph unicode=" "  horiz-adv-x="614" />
<glyph unicode="&#x09;" horiz-adv-x="614" />
<glyph unicode="&#xa0;" horiz-adv-x="614" />
<glyph unicode="!" horiz-adv-x="591" d="M207 94q0 36 26 61t62 25q39 0 65.5 -25t26.5 -63q0 -39 -26.5 -65.5t-65.5 -26.5q-38 0 -63 27.5t-25 66.5zM229 1395q0 27 20 45t50 18q28 0 48 -18t20 -45l-25 -1055q0 -24 -13.5 -36.5t-33.5 -12.5q-18 0 -30.5 13.5t-12.5 37.5z" />
<glyph unicode="&#x22;" horiz-adv-x="864" d="M154 993l30 449q0 25 21 41t47 16q36 0 56.5 -23t15.5 -55l-82 -440q-6 -39 -47 -39q-21 0 -31 14.5t-10 36.5zM547 993l31 449q0 25 20.5 41t46.5 16q36 0 56.5 -23t15.5 -55l-82 -440q-6 -39 -47 -39q-21 0 -31 14.5t-10 36.5z" />
<glyph unicode="#" horiz-adv-x="1509" d="M72 399q0 28 19.5 47t47.5 19h234l84 479h-226q-27 0 -47 20t-20 46t19.5 45.5t47.5 19.5h248l56 293q4 24 22 38.5t43 14.5q31 0 50 -23t14 -50l-50 -273h414l55 293q4 24 22 38.5t42 14.5q33 0 50.5 -22.5t12.5 -50.5l-49 -273h207q28 0 48 -19.5t20 -45.5t-20 -46 t-48 -20h-229l-84 -479h223q25 0 44 -19.5t19 -46.5q0 -26 -19 -44.5t-44 -18.5h-248l-47 -281q-4 -24 -24 -39.5t-44 -15.5q-33 0 -50.5 24t-12.5 54l47 258h-416l-49 -281q-4 -23 -24 -39t-43 -16q-35 0 -51 24t-11 54l45 258h-211q-28 0 -47.5 18.5t-19.5 44.5zM506 465 h416l84 479h-414z" />
<glyph unicode="$" horiz-adv-x="1165" d="M113 1067q0 108 59.5 192t151 129t200.5 54v90q0 26 19 45.5t47 19.5q27 0 46 -19t19 -46v-94q165 -18 293 -121q31 -25 31 -55q0 -37 -37 -56t-74 8q-90 71 -213 93v-551q67 -24 114 -45t104 -56.5t92 -74.5t59.5 -97t24.5 -127q0 -80 -33.5 -145.5t-91 -107.5t-125 -68 t-144.5 -37v-94q0 -28 -18.5 -47t-46.5 -19t-47 19t-19 47v86q-98 4 -197 36.5t-175 82.5q-33 22 -33 57q0 25 17 44t46 19t54 -18q120 -84 288 -90v536q-82 28 -146.5 60.5t-128.5 81.5t-100 117.5t-36 150.5zM244 1063q0 -90 74 -151.5t206 -110.5v508 q-121 -12 -200.5 -78.5t-79.5 -167.5zM655 129q116 20 189.5 78.5t73.5 146.5q0 89 -69 149t-194 109v-483z" />
<glyph unicode="%" horiz-adv-x="1382" d="M92 1124q0 123 86 216.5t209 93.5q122 0 207.5 -92t85.5 -216q0 -127 -85.5 -218t-207.5 -91t-208.5 91.5t-86.5 215.5zM221 66q0 18 12 36l789 1305q19 29 55 29q27 0 45.5 -19.5t18.5 -46.5q0 -17 -11 -35l-790 -1308q-18 -27 -53 -27q-27 0 -46.5 19.5t-19.5 46.5z M223 1126q0 -72 47 -125t117 -53q69 0 115.5 53t46.5 125q0 69 -46.5 121.5t-115.5 52.5q-70 0 -117 -52t-47 -122zM702 309q0 126 85 216.5t210 90.5q123 0 208 -91t85 -216t-85 -217t-208 -92q-125 0 -210 92t-85 217zM834 309q0 -71 46.5 -123.5t116.5 -52.5 q69 0 115.5 52.5t46.5 123.5t-46.5 123.5t-115.5 52.5q-70 0 -116.5 -52.5t-46.5 -123.5z" />
<glyph unicode="&#x26;" horiz-adv-x="1427" d="M80 403q0 63 15.5 117.5t40 95t65 79t81.5 67t99 61.5q-40 43 -62.5 70t-48.5 67t-37.5 81.5t-11.5 88.5q0 136 96 225t230 89q135 0 232.5 -85.5t97.5 -219.5q0 -119 -79.5 -211t-197.5 -137l309 -306q39 82 84 187q44 104 127 104q32 0 54 -18t22 -47q0 -25 -15 -44 t-38 -22q-19 -3 -29 -22q-34 -83 -102 -234l241 -237q13 -13 25 -13q4 0 11 2t11 2q26 0 45 -20t19 -47q0 -33 -29 -54.5t-63 -21.5q-52 0 -105 49l-217 213q-56 -119 -179.5 -190.5t-258.5 -71.5q-109 0 -207.5 50t-161.5 144t-63 209zM211 403q0 -119 92.5 -195.5 t212.5 -76.5q109 0 203.5 64t134.5 163l-377 371q-53 -28 -84 -46.5t-70.5 -49.5t-60.5 -61t-36 -73.5t-15 -95.5zM350 1130q0 -27 9 -54t18.5 -46t35 -49t39 -43.5l50.5 -50.5q50 24 73.5 36t63.5 38t59.5 48t35.5 56.5t16 73.5q0 80 -60.5 127t-142.5 47 q-80 0 -138.5 -50.5t-58.5 -132.5z" />
<glyph unicode="'" horiz-adv-x="468" d="M145 993l31 449q0 25 21 41t47 16q36 0 56 -23t15 -55l-82 -440q-6 -39 -47 -39q-21 0 -31 14.5t-10 36.5z" />
<glyph unicode="(" horiz-adv-x="532" d="M125 698q0 189 44.5 377t135.5 334q19 31 57 31q29 0 48.5 -20.5t19.5 -47.5q0 -16 -6 -31q-137 -287 -137 -632q0 -320 125 -637q14 -33 -5.5 -65t-58.5 -32q-18 0 -34 10t-23 27q-166 316 -166 686z" />
<glyph unicode=")" horiz-adv-x="532" d="M102 1372q0 27 19.5 47.5t48.5 20.5q38 0 57 -31q91 -147 136 -335t45 -376q0 -370 -166 -686q-7 -17 -23.5 -27t-34.5 -10q-39 0 -58 32t-5 65q125 317 125 637q0 345 -137 632q-7 17 -7 31z" />
<glyph unicode="*" horiz-adv-x="868" d="M139 1243q6 24 27.5 38t44.5 5l176 -67l-12 178q-3 24 14.5 41.5t42.5 17.5q26 2 44.5 -15t17.5 -42l-15 -178l176 63q24 9 46 -3.5t28 -37.5q8 -23 -3.5 -46.5t-35.5 -27.5l-180 -32l123 -152q15 -19 10 -43.5t-25 -38.5q-18 -14 -43.5 -11.5t-37.5 23.5l-99 170 l-104 -170q-12 -21 -37 -25.5t-45 9.5q-21 14 -26 39t10 45l126 150l-182 38q-24 4 -35.5 26t-5.5 46z" />
<glyph unicode="+" horiz-adv-x="997" d="M111 594q0 26 17 44.5t44 18.5h264v261q0 27 17.5 46t44.5 19q26 0 44.5 -17.5t18.5 -43.5v-265h260q27 0 46.5 -17.5t19.5 -43.5q0 -27 -17.5 -46t-44.5 -20h-264v-260q0 -26 -17 -45.5t-44 -19.5q-26 0 -45 18.5t-19 44.5v262h-260q-27 0 -46 18.5t-19 45.5z" />
<glyph unicode="," horiz-adv-x="528" d="M112.5 -149.5q6.5 17.5 24.5 28.5q42 25 77 67t36 83q-20 -4 -31 -4q-38 0 -62 26t-24 64q0 40 33 68t74 28q59 0 94 -52t35 -114q0 -79 -55 -144.5t-132 -103.5q-41 -23 -67 15q-9 21 -2.5 38.5z" />
<glyph unicode="-" horiz-adv-x="950" d="M115 592q0 27 17 46t44 19h594q26 0 46 -18t20 -45q0 -26 -18 -45t-44 -19h-594q-27 0 -46 18t-19 44z" />
<glyph unicode="." horiz-adv-x="550" d="M174 104q0 43 30.5 74t74.5 31q43 0 73.5 -31t30.5 -74q0 -44 -30.5 -74t-73.5 -30q-44 0 -74.5 30t-30.5 74z" />
<glyph unicode="/" horiz-adv-x="911" d="M2 -121q-6 33 8 58l783 1705q21 46 67 46q37 0 58 -30t10 -63l-793 -1728q-13 -29 -43.5 -38.5t-54.5 3.5q-29 14 -35 47z" />
<glyph unicode="0" horiz-adv-x="1363" d="M113 721q0 100 23 200t71 192.5t114 164t160 114t201 42.5q106 0 199.5 -43t160 -114.5t114.5 -163.5t71.5 -192.5t23.5 -199.5q0 -98 -23.5 -199t-71.5 -194.5t-114.5 -166.5t-160 -117t-199.5 -44q-107 0 -200.5 43.5t-159.5 116.5t-114 166.5t-71.5 194.5t-23.5 200z M248 721q0 -98 27 -198.5t78.5 -189.5t137.5 -145.5t191 -56.5q84 0 156.5 37t122.5 98t85.5 138t52.5 157.5t17 157.5q0 96 -27.5 196t-79.5 188t-137.5 144t-189.5 56q-84 0 -156.5 -36.5t-122.5 -96.5t-85.5 -136.5t-52.5 -156t-17 -156.5z" />
<glyph unicode="1" horiz-adv-x="589" d="M41 1176q0 29 27 53l219 186q19 19 45 19t44.5 -17.5t18.5 -48.5v-1300q0 -28 -19 -48t-46 -20q-26 0 -46 20t-20 48v1159l-112 -97q-20 -20 -46 -20q-27 0 -46 20t-19 46z" />
<glyph unicode="2" horiz-adv-x="1116" d="M70 68q0 74 27.5 143t66.5 120t102 104.5t113.5 88.5t119.5 80q9 5 13 8q140 89 193 132q151 122 151 237q0 159 -88.5 240.5t-247.5 81.5q-212 0 -293 -152q-21 -35 -55 -35q-38 -2 -59 31t-2 67q59 111 167 165.5t242 54.5q218 0 342.5 -119.5t124.5 -333.5 q0 -45 -13 -88.5t-30.5 -77.5t-51.5 -72t-59 -62t-72 -59t-71 -51t-74 -49q-73 -48 -112 -75t-98.5 -72.5t-92 -79t-63 -78t-41.5 -86.5h739q28 0 47 -18t19 -45q0 -28 -19 -48t-47 -20h-811q-28 0 -47.5 20t-19.5 48z" />
<glyph unicode="3" horiz-adv-x="1234" d="M92 420q0 30 18.5 51t47.5 21q31 0 51 -20.5t20 -51.5q0 -84 59.5 -152.5t143 -102.5t168.5 -34t170 35t144 103t59 151q0 65 -34 121t-88.5 91.5t-119 55t-127.5 19.5q-29 0 -50.5 19.5t-21.5 47.5t20 48t50 20q109 0 204 65t95 164q0 67 -46.5 121.5t-114.5 82.5 t-138 28q-96 0 -172 -37t-117 -115q-21 -35 -59 -35q-27 0 -46.5 20.5t-19.5 47.5q0 15 9 30q58 110 165.5 165t239.5 55q78 0 154.5 -25t138 -70t99.5 -114.5t38 -151.5q0 -92 -51.5 -170.5t-140.5 -122.5q115 -36 192.5 -136.5t77.5 -221.5q0 -77 -30 -145.5t-80.5 -118 t-116 -86t-138.5 -54.5t-145 -18q-67 0 -137.5 17t-137 52.5t-118.5 84.5t-83.5 118t-31.5 148z" />
<glyph unicode="4" horiz-adv-x="1236" d="M76 428q0 26 20 49l742 932q22 25 51 25q27 0 46 -18.5t19 -47.5v-879h133q27 0 46.5 -18t19.5 -45t-19.5 -46.5t-46.5 -19.5h-133v-294q0 -28 -18.5 -47t-46.5 -19q-27 0 -46.5 19.5t-19.5 46.5v294h-682q-27 0 -46 20t-19 48zM276 492h547v690z" />
<glyph unicode="5" horiz-adv-x="1169" d="M102 276q0 26 20 45t46 19q38 0 57 -31q50 -84 140.5 -131t191.5 -47q95 0 181.5 40t143 117.5t56.5 174.5t-56 174.5t-142.5 117.5t-182.5 40q-144 0 -250 -86q-40 -26 -76 -5t-30 66l82 606q3 25 21.5 41.5t43.5 16.5h570q26 0 45.5 -19t19.5 -47q0 -27 -19 -46 t-46 -19h-512l-60 -435q89 58 211 58q99 0 191.5 -34.5t163.5 -94t114 -147.5t43 -189q0 -83 -27 -156.5t-75 -128.5t-112 -95t-139.5 -60.5t-156.5 -20.5q-138 0 -258 63.5t-188 178.5q-11 18 -11 34z" />
<glyph unicode="6" horiz-adv-x="1232" d="M111 674q0 86 11 170t34 171.5t65 161t99 132.5t141 92t186 33q214 0 361 -113q21 -15 26 -40t-8 -46q-15 -25 -42 -34t-54 9q-136 90 -279 90q-91 0 -163 -40.5t-120 -114t-77 -169.5t-39 -212l-2 -23q131 191 381 191q129 0 238 -53t179 -162.5t70 -257.5 q0 -126 -70.5 -235.5t-184 -172.5t-238.5 -63q-112 0 -202 42.5t-147 111t-95 160t-54 184t-16 188.5zM279 461q0 -139 105 -238.5t245 -99.5q139 0 243.5 99.5t104.5 238.5t-104.5 238.5t-243.5 99.5q-140 0 -245 -99.5t-105 -238.5z" />
<glyph unicode="7" horiz-adv-x="1124" d="M111 1356q0 28 18.5 47.5t46.5 19.5h799q24 0 44.5 -18t20.5 -43q0 -15 -12 -43l-514 -1276q-12 -43 -61 -43q-35 0 -54.5 28t-7.5 58l488 1206h-701q-27 0 -47 19.5t-20 44.5z" />
<glyph unicode="8" horiz-adv-x="1138" d="M86 410q0 114 66 207t186 145q-58 50 -91 90.5t-55 100t-22 134.5q0 106 58 189.5t147.5 125.5t191.5 42t192.5 -42t149 -125.5t58.5 -189.5q0 -111 -39 -182.5t-131 -142.5q122 -49 189 -143t67 -209q0 -96 -42 -176.5t-111 -133t-156 -81.5t-179 -29q-91 0 -176.5 29 t-153 81.5t-108.5 133t-41 176.5zM238 406q0 -128 96.5 -207.5t232.5 -79.5q137 0 234.5 79.5t97.5 207.5q0 126 -98 207t-234 81q-135 0 -232 -81t-97 -207zM301 1075q0 -101 83.5 -173.5t182.5 -72.5q100 0 182 72.5t82 173.5q0 105 -80 168.5t-184 63.5 q-103 0 -184.5 -64t-81.5 -168z" />
<glyph unicode="9" horiz-adv-x="1232" d="M115 973q0 126 70.5 235.5t184 172.5t238.5 63q112 0 202 -42.5t147 -111t95 -160t54 -184t16 -188.5q0 -86 -11 -170t-34 -171.5t-65 -161t-99 -132.5t-141 -92t-186 -33q-214 0 -361 113q-21 16 -24 42.5t10 47.5q14 24 39.5 31t52.5 -11q136 -90 279 -90 q120 0 207 72.5t132.5 190t59.5 274.5l2 22q-130 -190 -381 -190q-129 0 -238 53t-179 162.5t-70 257.5zM256 971q0 -139 104.5 -238.5t243.5 -99.5q140 0 245 99.5t105 238.5t-105 238.5t-245 99.5q-139 0 -243.5 -99.5t-104.5 -238.5z" />
<glyph unicode=":" horiz-adv-x="573" d="M182 104q0 44 31 74.5t74 30.5q44 0 74 -30.5t30 -74.5q0 -43 -30 -73.5t-74 -30.5q-43 0 -74 30.5t-31 73.5zM182 825q0 43 31 73t74 30q44 0 74 -30t30 -73q0 -44 -30 -74t-74 -30q-43 0 -74 30t-31 74z" />
<glyph unicode=";" horiz-adv-x="546" d="M123 -149.5q7 17.5 27 28.5q42 23 76 65.5t34 84.5q-16 -4 -31 -4q-36 0 -60 26t-24 62q0 40 32 68t73 28q59 0 94 -51t35 -113q0 -79 -54 -145t-132 -103q-41 -23 -68 15q-9 21 -2 38.5zM143 834q0 43 31 73.5t74 30.5t74.5 -30t31.5 -74q0 -42 -31.5 -72.5t-74.5 -30.5 t-74 30t-31 73z" />
<glyph unicode="&#x3c;" horiz-adv-x="876" d="M102 735q0 49 45 68l459 246q13 8 35 8q28 0 51 -21.5t23 -54.5q0 -45 -37 -63l-395 -183l395 -184q37 -18 37 -64q0 -33 -22.5 -54t-51.5 -21q-18 0 -35 10l-459 244q-45 19 -45 69z" />
<glyph unicode="=" horiz-adv-x="968" d="M141 438q0 26 17.5 45t44.5 19h559q27 0 46 -18t19 -44q0 -27 -17 -45.5t-44 -19.5h-559q-27 0 -46.5 18t-19.5 45zM141 745q0 26 17.5 45t44.5 19h559q27 0 46 -17.5t19 -43.5q0 -27 -17 -46t-44 -20h-559q-27 0 -46.5 18t-19.5 45z" />
<glyph unicode="&#x3e;" horiz-adv-x="876" d="M162 487q0 46 37 64l395 184l-395 183q-37 16 -37 63q0 33 23 54.5t51 21.5q21 0 34 -8l459 -246q45 -23 45 -68q0 -50 -45 -69l-459 -244q-17 -10 -34 -10q-30 0 -52 21t-22 54z" />
<glyph unicode="?" horiz-adv-x="831" d="M51 1309q0 28 27 51q60 46 140.5 72t158.5 26q165 0 281 -97t116 -257q0 -78 -26.5 -143.5t-65 -110t-104.5 -102.5q-77 -71 -116 -131.5t-44 -147.5l-8 -123q-1 -26 -18 -40.5t-36 -14.5q-50 0 -53 55l-4 123q-4 112 43.5 192.5t146.5 172.5q78 78 100 108q54 73 54 158 q0 109 -76.5 174t-187.5 65q-125 0 -238 -79q-28 -20 -59 -3t-31 52zM270 88q0 38 24.5 65t61.5 27q39 0 66 -26.5t27 -65.5q0 -36 -28 -62t-65 -26q-35 0 -60.5 26.5t-25.5 61.5z" />
<glyph unicode="@" horiz-adv-x="2193" d="M88 586q0 156 50 306.5t142.5 277t216 223t280 150.5t323.5 54q210 0 400.5 -70t330.5 -210q274 -274 274 -670q0 -83 -11 -166t-39.5 -172t-72 -155.5t-115.5 -110t-163 -43.5q-117 0 -198 56t-113 165q-80 -100 -190.5 -160.5t-231.5 -60.5q-99 0 -182 41.5t-136.5 111 t-82.5 157t-29 182.5q0 116 43.5 228t118 198.5t182.5 140t229 53.5q113 0 207 -49t152 -141q16 31 44 51t62 20q28 0 45.5 -20t17.5 -47q0 -21 -13 -35t-27.5 -26t-16.5 -27q-28 -175 -51 -332q-2 -14 -8.5 -53t-9.5 -66t-3 -53q0 -92 50 -144.5t141 -52.5q57 0 102.5 27 t73.5 75t47 102t27.5 120t12 116t3.5 103q0 150 -53 272.5t-160 241.5q-123 135 -293 200.5t-364 65.5q-177 0 -339 -69.5t-279.5 -186.5t-187 -279t-69.5 -339q0 -181 72 -344.5t192.5 -280t285 -184.5t343.5 -68q269 0 498 164q18 12 41 12q28 0 47.5 -17.5t19.5 -47.5 q0 -36 -28 -58q-264 -192 -592 -192q-205 0 -393.5 82.5t-324.5 220.5t-217 325t-81 388zM674 496q0 -146 83.5 -254.5t219.5 -108.5q129 0 237 91.5t162 219.5q21 59 29 120.5t3.5 121.5t-26 113t-56.5 93t-91 63.5t-127 23.5q-118 0 -219 -69.5t-158 -180.5t-57 -233z" />
<glyph unicode="A" d="M96 68q0 24 13.5 41.5t37.5 23.5q21 3 27 25l461 1235q17 51 76 51q58 0 75 -51l461 -1235q6 -22 27 -25q24 -6 37.5 -23.5t13.5 -41.5q0 -30 -23 -49t-53 -19q-43 0 -75.5 29.5t-49.5 72.5l-108 295h-610l-109 -295q-17 -43 -49.5 -72.5t-75.5 -29.5q-30 0 -53 19 t-23 49zM451 528h520l-209 547l-51 164h-2l-50 -164z" />
<glyph unicode="B" horiz-adv-x="1378" d="M195 70q0 22 12.5 38.5t32.5 22.5q24 9 24 37v1114q0 9 -3.5 15.5t-6.5 8.5l-4 3q-39 16 -39 59q0 29 20.5 47.5t49.5 18.5h514q166 0 283.5 -117t117.5 -283q0 -89 -43.5 -168t-112.5 -123q99 -46 162.5 -143t63.5 -205q0 -165 -117 -280t-279 -115h-608q-27 0 -47 21 t-20 49zM381 131h489q111 0 189 77t78 187q0 117 -77.5 192t-189.5 75h-475v-486q0 -37 -14 -45zM385 1303q10 -10 10 -39v-469h432q110 0 174 62.5t64 176.5q0 112 -78.5 190.5t-191.5 78.5h-410z" />
<glyph unicode="C" horiz-adv-x="1347" d="M123 715q0 144 57.5 278t154 233.5t231 159.5t280.5 60q187 0 354 -86q33 -20 33 -60q0 -27 -19 -47t-47 -20q-10 0 -30 8q-138 74 -287 74q-161 0 -298.5 -81t-217.5 -219.5t-80 -299.5q0 -160 81 -297.5t219 -218t298 -80.5q179 0 322 94q15 10 36 10q27 0 46.5 -19 t19.5 -46q0 -39 -31 -58q-180 -112 -393 -112q-150 0 -286 59.5t-232.5 158.5t-153.5 232.5t-57 276.5z" />
<glyph unicode="D" horiz-adv-x="1507" d="M195 66q0 44 38 59q15 7 15 27v1130q0 9 -4 15.5t-8 8.5l-3 3q-38 15 -38 59q0 29 20.5 47.5t48.5 18.5h492q141 0 260.5 -59.5t199 -159t124 -229t44.5 -269.5q0 -188 -75 -349.5t-220.5 -263.5t-332.5 -104h-492q-28 0 -48.5 18.5t-20.5 47.5zM369 131h387 q113 0 208 48.5t157.5 129.5t97 186.5t34.5 221.5q0 115 -34 219.5t-96.5 185t-157.5 129.5t-209 52h-387q10 -10 10 -39v-1094q0 -29 -10 -39z" />
<glyph unicode="E" horiz-adv-x="1341" d="M195 66q0 44 38 59q15 7 15 27v1130q0 9 -4 15.5t-8 8.5l-3 3q-38 15 -38 59q0 29 20.5 47.5t48.5 18.5h873q27 0 46 -19.5t19 -46.5q0 -28 -18.5 -46.5t-46.5 -18.5h-768q10 -10 10 -39v-500h637q27 0 46 -19.5t19 -46.5q0 -28 -18.5 -46.5t-46.5 -18.5h-637v-463 q0 -29 -10 -39h807q28 0 46.5 -17.5t18.5 -45.5t-19 -48t-46 -20h-912q-28 0 -48.5 18.5t-20.5 47.5z" />
<glyph unicode="F" horiz-adv-x="1263" d="M193 63q0 45 38 60q15 7 15 27v1132q0 9 -4 15.5t-8 8.5l-3 3q-38 15 -38 59q0 29 20.5 47.5t48.5 18.5h844q30 0 48 -20q17 -20 18 -44q0 -24 -18 -46q-18 -20 -48 -21h-739q10 -10 10 -43v-496h604q41 0 58 -33q8 -16 8.5 -32.5t-8.5 -32.5q-17 -32 -58 -33h-604v-492 q0 -62 -30 -102.5t-85 -40.5q-29 0 -49 18t-20 47z" />
<glyph unicode="G" horiz-adv-x="1607" d="M123 717q0 148 54.5 281t158.5 237q101 101 234 156t278 55q123 0 240 -40.5t212 -115.5q27 -18 27 -53q0 -28 -19 -49t-46 -21q-18 0 -41 15q-160 133 -373 133q-122 0 -232 -47.5t-189 -127.5t-126 -190.5t-47 -232.5q0 -161 79.5 -299t216.5 -218.5t298 -80.5 q277 0 442 200v232q0 29 10 39h-350q-26 0 -45.5 18.5t-19.5 44.5q0 29 18.5 48.5t46.5 19.5h455q29 0 49.5 -18.5t20.5 -47.5q0 -43 -39 -59q-15 -7 -15 -27v-272q0 -26 -14 -43q-205 -266 -559 -266q-197 0 -364 98.5t-264 266.5t-97 364z" />
<glyph unicode="H" horiz-adv-x="1603" d="M195 66q0 44 38 59q15 7 15 27v1130q0 9 -4 15.5t-8 8.5l-3 3q-38 15 -38 59q0 29 20.5 47.5t48.5 18.5q55 0 85 -41t30 -103v-526h846v526q0 62 29.5 103t84.5 41q29 0 49.5 -18.5t19.5 -47.5q0 -43 -38 -59q-14 -7 -14 -27v-1130q0 -9 3.5 -15.5t6.5 -8.5l4 -3 q39 -16 38 -59q0 -29 -20 -47.5t-49 -18.5q-55 0 -84.5 40.5t-29.5 102.5v490h-846v-490q0 -62 -30 -102.5t-85 -40.5q-28 0 -48.5 18.5t-20.5 47.5z" />
<glyph unicode="I" horiz-adv-x="540" d="M205 66v1302q0 26 19.5 46t45.5 20q27 0 46.5 -19.5t19.5 -46.5v-1302q0 -27 -19.5 -46.5t-46.5 -19.5q-26 0 -45.5 20t-19.5 46z" />
<glyph unicode="J" horiz-adv-x="1085" d="M67 238q2 30 21 45q17 17 43 17.5t45 -21.5q60 -81 126.5 -120.5t158.5 -39.5q128 0 199 94.5t71 237.5v839q0 62 30 103t85 41q28 0 48.5 -18.5t20.5 -47.5q0 -44 -38 -59q-15 -7 -15 -27v-829q0 -106 -33 -203q-43 -121 -142.5 -185.5t-229.5 -64.5t-219 53 q-80 45 -156 137q-15 15 -15 41v7z" />
<glyph unicode="K" horiz-adv-x="1417" d="M193 68q0 17 11.5 33t31.5 22q10 7 10 27v1136q0 8 -2.5 15t-5.5 9l-2 3q-20 4 -31.5 20.5t-11.5 32.5q0 29 20 48.5t47 19.5q57 0 87 -43.5t30 -100.5v-506l-8 -170h2l149 172l506 531q10 10 10 20q0 5 -4 17t-4 20q0 23 22 41.5t48 18.5q34 0 55 -31t21 -64 q0 -59 -50 -112l-407 -426l502 -649q5 -6 12 -10t11 -4l5 -1q12 4 21 4q22 0 39.5 -19t17.5 -46q0 -35 -25.5 -55.5t-58.5 -20.5q-65 0 -117 63l-506 642l-241 -254v-308q0 -58 -30 -100.5t-87 -42.5q-28 0 -47.5 18.5t-19.5 49.5z" />
<glyph unicode="L" horiz-adv-x="1208" d="M193 66q0 44 38 59q15 7 15 27v1130q0 9 -4 15.5t-8 8.5l-3 3q-38 15 -38 59q0 29 20.5 47.5t48.5 18.5q55 0 85 -41t30 -103v-1120q0 -29 -10 -39h698q28 0 46.5 -18.5t18.5 -44.5q0 -28 -19 -48t-46 -20h-803q-28 0 -48.5 18.5t-20.5 47.5z" />
<glyph unicode="M" horiz-adv-x="1892" d="M195 66q0 44 38 59q15 7 15 27v1130q0 9 -4 15.5t-8 8.5l-3 3q-38 15 -38 59q0 29 20.5 47.5t48.5 18.5q65 0 96 -60q4 -8 586 -1022q582 1014 586 1022q31 60 96 60q29 0 49.5 -18.5t20.5 -47.5q0 -43 -39 -59q-14 -7 -14 -27v-1130q0 -9 3.5 -15.5t7.5 -8.5l3 -3 q39 -16 39 -59q0 -29 -20.5 -47.5t-49.5 -18.5q-55 0 -85 40.5t-30 102.5v768l7 170h-2l-93 -170l-421 -727q-16 -34 -58 -34q-41 0 -57 34l-424 729l-90 168h-2l6 -170v-768q0 -62 -30 -102.5t-85 -40.5q-28 0 -48.5 18.5t-20.5 47.5z" />
<glyph unicode="N" horiz-adv-x="1564" d="M195 66q0 44 38 59q15 7 15 27v1130q0 9 -4 15.5t-8 8.5l-3 3q-38 15 -38 59q0 29 20.5 47.5t48.5 18.5q35 0 58.5 -17t48.5 -49l700 -911l119 -170h2l-6 170v833q0 62 29.5 103t84.5 41q29 0 49.5 -18.5t20.5 -47.5q0 -43 -39 -59q-14 -7 -14 -27v-1130q0 -9 3.5 -15.5 t7.5 -8.5l3 -3q39 -16 39 -59q0 -29 -20.5 -47.5t-49.5 -18.5q-55 0 -94 53l-712 924l-119 168h-2l6 -168v-834q0 -62 -30 -102.5t-85 -40.5q-28 0 -48.5 18.5t-20.5 47.5z" />
<glyph unicode="O" horiz-adv-x="1699" d="M123 717q0 197 97.5 364.5t265 265t364.5 97.5t364.5 -97.5t265 -265t97.5 -364.5t-97.5 -364.5t-265 -265t-364.5 -97.5t-364.5 97.5t-265 265t-97.5 364.5zM256 717q0 -162 79.5 -299.5t216.5 -217t298 -79.5q122 0 232 47t190 127t127 190t47 232q0 161 -79.5 298 t-217 216.5t-299.5 79.5q-161 0 -298 -79.5t-216.5 -216.5t-79.5 -298z" />
<glyph unicode="P" horiz-adv-x="1298" d="M195 66q0 44 38 59q15 7 15 27v1130q0 9 -4 15.5t-8 8.5l-3 3q-38 15 -38 59q0 29 20.5 47.5t48.5 18.5h547q167 0 286.5 -119.5t119.5 -286.5q0 -162 -118 -281.5t-280 -119.5h-440v-484q0 -62 -30 -102.5t-85 -40.5q-28 0 -48.5 18.5t-20.5 47.5zM369 1303 q10 -10 10 -39v-506h432q113 0 192.5 79t79.5 191q0 114 -79 194.5t-193 80.5h-442z" />
<glyph unicode="Q" horiz-adv-x="1732" d="M123 715q0 145 58.5 279.5t156.5 233.5t232.5 158.5t279.5 59.5q144 0 279 -59.5t233.5 -158t157.5 -233.5t59 -280q0 -136 -49.5 -261t-140.5 -225l102 -94q11 -8 20 -8q7 0 18 3t17 3q26 0 45 -18t19 -45q0 -35 -29 -58.5t-63 -23.5q-57 0 -109 45l-117 108 q-199 -153 -442 -153q-141 0 -275.5 60t-233 158.5t-158.5 233t-60 275.5zM254 715q0 -160 86.5 -299t222.5 -218t283 -79q194 0 348 110l-238 220q-22 19 -22 47q0 26 19.5 46.5t45.5 20.5q24 0 45 -18l250 -228q72 80 112 182.5t40 215.5q0 122 -47 233t-127 191 t-191.5 127t-234.5 47q-121 0 -230.5 -47t-189 -127t-126 -191t-46.5 -233z" />
<glyph unicode="R" horiz-adv-x="1431" d="M195 63q0 45 38 60q15 7 15 27v1132q0 9 -4 15.5t-8 8.5l-3 3q-38 15 -38 59q0 29 20.5 47.5t48.5 18.5h547q167 0 286.5 -119.5t119.5 -286.5q0 -134 -83 -243t-210 -144l276 -481q10 -21 31 -21h8q23 0 41 -18t18 -43q0 -34 -25 -56t-61 -22q-35 0 -66.5 22t-51.5 56 l-312 549h-403v-486q0 -62 -30 -102.5t-85 -40.5q-29 0 -49 18t-20 47zM369 1303q10 -10 10 -39v-506h432q113 0 192.5 79t79.5 191q0 114 -79 194.5t-193 80.5h-442z" />
<glyph unicode="S" horiz-adv-x="1165" d="M113 1067q0 89 40.5 162t107 119t148.5 71t169 25q215 0 370 -127q31 -25 31 -55q0 -37 -37 -56q-15 -8 -31 -8l-43 16q-56 45 -133.5 72t-150.5 27q-143 0 -241.5 -68t-98.5 -182q0 -45 21.5 -84t53.5 -67.5t83.5 -55.5t97 -45t108.5 -39q53 -18 88 -31t86 -36t84 -44.5 t71 -54t60 -67.5t37 -82t15 -101q0 -76 -30.5 -138.5t-80.5 -104t-115.5 -70t-134 -41t-137.5 -12.5q-104 0 -211 32.5t-188 86.5q-33 22 -33 57q0 25 17 44t46 19t54 -18q129 -90 315 -90q154 0 260.5 62.5t106.5 170.5q0 48 -22 88.5t-53.5 68.5t-87.5 56.5t-101.5 45.5 t-118.5 42q-66 23 -119 46t-112 59.5t-99 78.5t-66 101t-26 127z" />
<glyph unicode="T" horiz-adv-x="1392" d="M82 1368q0 28 18.5 47t46.5 19h1096q28 0 48 -19t20 -47q0 -27 -20 -46t-48 -19h-481v-1235q0 -28 -20 -48t-46 -20q-27 0 -46 20t-19 48v1235h-484q-28 0 -46.5 18.5t-18.5 46.5z" />
<glyph unicode="U" horiz-adv-x="1484" d="M164 1368q0 29 20.5 47.5t48.5 18.5q55 0 85 -41t30 -103v-786q0 -146 111 -259.5t252 -113.5h61q93 1 178 54.5t136 140t51 178.5v786q0 62 29.5 103t84.5 41q29 0 49.5 -18.5t20.5 -47.5q0 -43 -39 -59q-14 -7 -14 -27v-778q0 -129 -69 -246t-184.5 -187.5 t-242.5 -70.5h-61q-127 0 -241.5 70t-183.5 186t-69 244v782q0 9 -3.5 15.5t-7.5 8.5l-3 3q-39 16 -39 59z" />
<glyph unicode="V" horiz-adv-x="1433" d="M102 1366q0 32 22.5 50t55.5 18q38 0 68.5 -23.5t44.5 -60.5l377 -979l45 -154h2l47 154l377 979q14 37 44 60.5t68 23.5q33 0 55.5 -18t22.5 -50q0 -25 -13 -42t-36 -21t-29 -23l-473 -1229q-6 -22 -23 -36.5t-40 -14.5t-40.5 14.5t-23.5 36.5l-473 1229q-6 19 -28 23 q-50 10 -50 63z" />
<glyph unicode="W" horiz-adv-x="2105" d="M102 1368q0 31 22 48.5t54 17.5q41 0 72 -26.5t45 -68.5l317 -933l45 -162l39 162l295 983q6 20 23 32.5t39 12.5t38.5 -12.5t22.5 -32.5l295 -983l39 -162l45 162l317 933q14 42 45 68.5t72 26.5q32 0 54 -17.5t22 -48.5q0 -23 -14 -40t-37 -21q-21 -7 -27 -25 l-422 -1239q-6 -19 -21.5 -31t-35.5 -12q-24 0 -42 13t-24 34l-286 961l-41 168l-41 -168l-287 -961q-6 -21 -24 -34t-42 -13q-20 0 -35.5 12t-21.5 31l-422 1239q-6 18 -26 25q-23 5 -37.5 21.5t-14.5 39.5z" />
<glyph unicode="X" horiz-adv-x="1388" d="M129 70q0 27 19.5 47t46.5 20q19 0 32 19l389 555l-391 571q-12 18 -35 18q-28 0 -43.5 20t-15.5 48q0 32 24 49t58 17q65 0 117 -74l262 -379l102 -166l101 166l264 379q52 74 117 74q33 0 57 -17t24 -49q0 -28 -15.5 -48t-43.5 -20q-23 0 -35 -18l-391 -571l389 -555 q13 -19 33 -19q26 0 46 -19.5t20 -47.5q0 -31 -25.5 -50.5t-60.5 -19.5q-19 0 -27 2q-43 11 -90 74l-260 366l-103 164l-102 -164l-260 -366q-57 -76 -117 -76q-35 0 -60.5 18.5t-25.5 51.5z" />
<glyph unicode="Y" horiz-adv-x="1343" d="M90 1364q0 38 25.5 54t62.5 16q70 0 109 -64l297 -491l86 -170h2l88 170l297 491q39 64 108 64q37 0 62.5 -16t25.5 -54q0 -28 -17 -46t-44 -18q-21 0 -35 -18l-420 -696v-518q0 -28 -19.5 -48t-45.5 -20t-46 20t-20 48v518l-420 696q-14 18 -34 18q-28 0 -45 18t-17 46z " />
<glyph unicode="Z" horiz-adv-x="1425" d="M129 1419q0 29 18.5 49.5t47.5 20.5q19 0 35.5 -11t23.5 -30q7 -14 27 -14h837q38 0 64 -20t26 -56q0 -31 -16 -53l-805 -1090l-78 -88l135 4h721q9 0 15.5 3.5t9.5 7.5l2 3q7 19 23.5 30t35.5 11q29 0 47.5 -20.5t18.5 -48.5q0 -54 -43 -85.5t-100 -31.5h-971 q-49 0 -69 43q-8 17 -9 34q0 24 18 44l813 1098l80 86l-137 -2h-627q-57 0 -100 31t-43 85z" />
<glyph unicode="[" horiz-adv-x="610" d="M180 -106v1509q0 27 20 46t48 19h205q28 0 46.5 -18.5t18.5 -46.5t-19 -48t-46 -20h-140v-1378h140q27 0 46 -20t19 -48q0 -27 -19 -46t-46 -19h-205q-29 0 -48.5 20.5t-19.5 49.5z" />
<glyph unicode="\" horiz-adv-x="911" d="M-14 1589q-11 34 8.5 66.5t56.5 32.5q47 0 68 -46l782 -1705q14 -25 8 -58t-35 -47q-24 -13 -54.5 -3.5t-43.5 38.5z" />
<glyph unicode="]" horiz-adv-x="610" d="M92 -111q0 28 19 48t47 20h139v1378h-139q-28 0 -47 20t-19 48t19 46.5t47 18.5h204q28 0 48 -19t20 -46v-1509q0 -29 -19.5 -49.5t-48.5 -20.5h-204q-28 0 -47 19t-19 46z" />
<glyph unicode="^" horiz-adv-x="1099" d="M152 942q-17 33 6 62l356 399q14 17 35 17t35 -17l358 -399q15 -18 12 -41q-3 -36 -38 -50.5t-60 15.5l-307 368l-305 -368q-16 -19 -41 -19q-34 0 -51 33z" />
<glyph unicode="_" horiz-adv-x="720" d="M-70 -258q0 21 16.5 37t37.5 16h751q22 0 39 -16t17 -37q0 -22 -17 -38.5t-39 -16.5h-751q-20 0 -37 16.5t-17 38.5z" />
<glyph unicode="`" horiz-adv-x="1093" d="M313 1430q0 38 24.5 66t61.5 28q29 0 45 -13l238 -198q17 -14 20 -37q0 -18 -13 -32.5t-30 -14.5q-10 0 -22 6l-285 129q-39 17 -39 66z" />
<glyph unicode="a" horiz-adv-x="1107" d="M72 330q0 97 37.5 172.5t102.5 121.5t148 69.5t179 23.5q66 0 134 -18.5t118 -49.5v58q0 85 -13 120q-43 117 -268 117q-104 0 -236 -37q-16 -4 -28 -4q-28 0 -46 18t-18 46q0 44 45 61q123 47 275 47q92 0 167 -17t139.5 -64t92.5 -120q21 -55 21 -163v-559 q0 -9 3.5 -15.5t6.5 -8.5l4 -3q39 -16 39 -59q0 -29 -21 -52.5t-49 -23.5q-42 0 -70 30.5t-40 75.5q-4 16 -4 62q-41 -75 -137 -121.5t-191 -46.5q-104 0 -191.5 38t-143.5 117t-56 185zM203 332q0 -102 78.5 -157.5t185.5 -55.5q78 0 151 30.5t123 93t50 142.5v137 q-115 64 -259 64q-64 0 -121.5 -15t-105 -44.5t-75 -79.5t-27.5 -115z" />
<glyph unicode="b" horiz-adv-x="1267" d="M133 66q0 43 39 59q14 7 14 27v1196q0 9 -3.5 15.5t-6.5 8.5l-4 2q-39 16 -39 60q0 28 20.5 46.5t49.5 18.5q55 0 84 -40.5t30 -102.5v-482q67 95 161 143t200 48q138 0 250.5 -71.5t174.5 -190.5t62 -258q0 -146 -60.5 -270t-173.5 -199.5t-253 -75.5q-240 0 -361 197 v-54q0 -62 -29.5 -102.5t-84.5 -40.5q-29 0 -49.5 18.5t-20.5 47.5zM317 547q0 -60 15.5 -120t47 -113t73.5 -94t100 -65t123 -24q106 0 189.5 61.5t126 155.5t42.5 197q0 161 -99.5 275t-258.5 114q-160 0 -259.5 -112.5t-99.5 -274.5z" />
<glyph unicode="c" horiz-adv-x="1116" d="M102 530q0 148 73.5 273.5t199.5 198.5t274 73q190 0 330 -110q23 -18 31 -41q3 -10 3 -20q0 -12 -5 -22q-9 -18 -25 -31t-40 -11.5t-46 18.5q-109 84 -248 84q-172 0 -295 -120t-123 -292q0 -167 123.5 -287t294.5 -120q140 0 248 86q21 17 44.5 18t39.5 -12t25 -31 q5 -10 5 -23q-1 -9 -3 -18q-6 -23 -29 -41q-139 -112 -330 -112q-148 0 -274 72.5t-199.5 197t-73.5 270.5z" />
<glyph unicode="d" horiz-adv-x="1267" d="M102 545q0 222 138.5 371t349.5 149q110 0 213 -51t147 -140v482q0 62 30 102.5t85 40.5q29 0 49.5 -18.5t20.5 -46.5q0 -44 -39 -60q-15 -6 -15 -26v-1196q0 -9 3.5 -15.5t7.5 -8.5l4 -3q39 -16 39 -59q0 -29 -20.5 -47.5t-49.5 -18.5q-55 0 -85 40.5t-30 102.5v54 q-55 -94 -153.5 -145.5t-206.5 -51.5h-19q-132 0 -240.5 75.5t-168.5 200t-60 269.5zM233 545q0 -103 42.5 -197t126.5 -155.5t190 -61.5q107 0 190.5 61.5t125.5 155t42 199.5q0 160 -101 274.5t-257 114.5q-159 0 -259 -115t-100 -276z" />
<glyph unicode="e" horiz-adv-x="1204" d="M102 535q0 140 62.5 263t178.5 200t259 77q144 0 261 -76.5t180 -199.5t63 -264q0 -28 -21.5 -48t-48.5 -20h-800q21 -141 123.5 -243.5t242.5 -102.5q203 0 313 110q21 21 52 21q25 0 45 -18t20 -44q0 -29 -18 -47q-144 -153 -412 -153q-143 0 -259 75.5t-178.5 200 t-62.5 269.5zM236 598h737q-19 141 -124.5 243.5t-246.5 102.5q-138 0 -244.5 -103.5t-121.5 -242.5z" />
<glyph unicode="f" horiz-adv-x="694" d="M51 999q0 27 18 46.5t48 19.5h61v90q0 56 10.5 105.5t33.5 94t57 76t85.5 50t114.5 18.5q79 0 156 -24q21 -6 35 -24t14 -42q0 -33 -27.5 -52t-60.5 -11q-77 22 -117 22q-93 0 -131.5 -51.5t-38.5 -161.5v-90h266q27 0 46.5 -18.5t19.5 -47.5q0 -26 -16 -45.5t-41 -19.5 h-275v-791q0 -62 -29.5 -102.5t-84.5 -40.5q-29 0 -49.5 18.5t-20.5 47.5q0 43 39 59q14 7 14 27v782h-69q-25 0 -41.5 19.5t-16.5 45.5z" />
<glyph unicode="g" horiz-adv-x="1282" d="M102 557q0 136 63.5 252t179 186t257.5 70q50 0 97 -11t82 -28t66 -38.5t52 -42.5t36.5 -38t22.5 -28l7 -11v54q0 62 29.5 102.5t84.5 40.5q29 0 49.5 -18.5t20.5 -47.5q0 -43 -39 -59q-14 -7 -14 -27v-774q0 -108 -28 -193.5t-74 -139.5t-110.5 -89.5t-132.5 -50 t-145 -14.5q-102 0 -198.5 29t-142.5 57l-46 29q-33 21 -33 53q0 28 18.5 46.5t47.5 18.5q22 0 35 -8q6 -4 17.5 -11t47 -24t71 -30t86 -24t95.5 -11q177 0 269 98t92 264v113q-4 -7 -12.5 -18.5t-39.5 -40.5t-69.5 -51.5t-104 -41t-139.5 -18.5q-217 0 -357.5 133 t-140.5 342zM242 559q0 -155 101.5 -253.5t264.5 -98.5t265 97.5t102 256.5q0 154 -101.5 265.5t-261.5 111.5q-161 0 -265.5 -111.5t-104.5 -267.5z" />
<glyph unicode="h" horiz-adv-x="1269" d="M133 66q0 42 39 59q14 7 14 27v1196q0 9 -3.5 15.5t-6.5 8.5l-4 2q-39 16 -39 60q0 28 20.5 46.5t49.5 18.5q55 0 84.5 -40.5t29.5 -102.5v-459q5 11 17 27.5t39 42t60.5 46.5t85.5 36.5t110 15.5q230 0 342 -124.5t112 -358.5v-430q0 -9 3.5 -15.5t7.5 -8.5l4 -3 q39 -16 39 -59q0 -29 -20.5 -47.5t-49.5 -18.5q-55 0 -85 40.5t-30 102.5v455q0 153 -81.5 244.5t-241.5 91.5q-125 0 -218.5 -80.5t-93.5 -212.5v-498q0 -61 -25 -100.5t-79 -42.5q-38 0 -58 19.5t-22 46.5z" />
<glyph unicode="i" horiz-adv-x="493" d="M123 999q0 29 20.5 47.5t49.5 18.5q55 0 84.5 -40.5t29.5 -102.5v-770q0 -9 3.5 -15.5t7.5 -8.5l4 -3q38 -15 38 -59q0 -29 -20.5 -47.5t-48.5 -18.5q-55 0 -85 40.5t-30 102.5v770q0 9 -3.5 15.5t-6.5 9.5l-4 2q-39 16 -39 59zM127 1405q0 39 27.5 66.5t66.5 27.5 t67.5 -27t28.5 -65q0 -40 -28 -68t-68 -28q-38 0 -66 28t-28 66z" />
<glyph unicode="j" horiz-adv-x="505" d="M-31 -287q0 26 17 43t43 17h20q56 0 87.5 43.5t33.5 107.5v998q0 62 30 102.5t85 40.5q28 0 48.5 -18.5t20.5 -47.5q0 -43 -39 -59q-14 -7 -14 -27v-993q0 -130 -69.5 -199t-194.5 -69q-29 0 -48.5 17t-19.5 44zM154 1403q0 38 28 67t66 29q41 0 68.5 -27.5t27.5 -66.5 q0 -41 -27.5 -69.5t-68.5 -28.5q-38 0 -66 28t-28 68z" />
<glyph unicode="k" horiz-adv-x="1044" d="M133 66q0 43 39 59q14 7 14 27v1196q0 9 -3.5 15.5t-6.5 8.5l-4 2q-37 15 -37 60q0 28 20.5 46.5t49.5 18.5q54 0 83 -40.5t29 -102.5v-703l-6 -168h2l152 168l297 297q8 8 9 16.5t-2.5 21.5t-4.5 20q0 27 18.5 42t44.5 15q35 0 56.5 -25.5t23.5 -58.5v-8q0 -62 -47 -109 l-315 -315l307 -399q11 -15 25 -15q4 0 10.5 2t11.5 2q25 0 41 -18.5t16 -44.5q0 -33 -27.5 -54.5t-60.5 -21.5q-32 0 -62.5 17.5t-51.5 45.5l-301 392l-136 -133v-179q0 -62 -29.5 -102.5t-84.5 -40.5q-29 0 -49.5 18.5t-20.5 47.5z" />
<glyph unicode="l" horiz-adv-x="493" d="M123 1434q0 28 20.5 46.5t49.5 18.5q55 0 84.5 -40.5t29.5 -102.5v-1204q0 -9 3.5 -15.5t7.5 -8.5l4 -3q38 -15 38 -59q0 -29 -20.5 -47.5t-48.5 -18.5q-55 0 -85 40.5t-30 102.5v1205q0 9 -3.5 15.5t-6.5 8.5l-4 2q-39 16 -39 60z" />
<glyph unicode="m" horiz-adv-x="1855" d="M133 66q0 43 39 59q14 7 14 27v761q0 9 -3.5 15.5t-6.5 9.5l-4 2q-39 16 -39 59q0 29 20.5 47.5t49.5 18.5q52 0 81.5 -38t32.5 -97v-15q99 150 289 150q110 0 202 -41.5t140 -138.5q52 88 141.5 134t192.5 46q74 0 142 -24.5t123.5 -71t88.5 -123t33 -172.5v-522 q0 -9 3.5 -15.5t7.5 -8.5l3 -3q39 -16 39 -59q0 -29 -20.5 -47.5t-48.5 -18.5q-55 0 -85 40.5t-30 102.5v533q0 65 -23.5 116.5t-62 81.5t-83 45t-91.5 15q-132 0 -208.5 -72.5t-76.5 -204.5v-591q0 -27 -19 -46.5t-46 -19.5q-26 0 -46 20t-20 46v610q0 70 -23.5 122 t-62.5 80.5t-82.5 42t-91.5 13.5q-128 0 -206.5 -77t-78.5 -204v-510q0 -62 -29.5 -102.5t-84.5 -40.5q-29 0 -49.5 18.5t-20.5 47.5z" />
<glyph unicode="n" horiz-adv-x="1269" d="M133 66q0 43 39 59q14 7 14 27v757q0 9 -3.5 15t-6.5 8l-4 2q-39 16 -39 61q0 29 20 49.5t48 20.5q54 0 85 -35t31 -98v-37q5 9 17 25t40 42.5t62 48t85.5 38t107.5 16.5q223 0 338.5 -125.5t115.5 -357.5v-430q0 -9 3.5 -15.5t7.5 -8.5l4 -3q39 -16 39 -59 q0 -29 -20.5 -47.5t-49.5 -18.5q-55 0 -85 40.5t-30 102.5v455q0 76 -17.5 135.5t-54.5 105.5t-100.5 70.5t-150.5 24.5q-133 0 -222.5 -85.5t-89.5 -219.5v-486q0 -62 -29.5 -102.5t-84.5 -40.5q-29 0 -49.5 18.5t-20.5 47.5z" />
<glyph unicode="o" horiz-adv-x="1292" d="M102 535q0 146 73 270.5t198 197t272 72.5q148 0 273.5 -72.5t198.5 -197t73 -270.5q0 -148 -73 -273.5t-198.5 -198.5t-273.5 -73q-147 0 -272 73t-198 198.5t-73 273.5zM231 535q0 -171 122.5 -292.5t291.5 -121.5q172 0 294 121t122 293q0 169 -122 289t-294 120 q-169 0 -291.5 -120.5t-122.5 -288.5z" />
<glyph unicode="p" horiz-adv-x="1267" d="M133 -281q0 44 39 60q14 6 14 26v1108q0 9 -3.5 15.5t-6.5 9.5l-4 2q-39 16 -39 59q0 29 20.5 47.5t49.5 18.5q55 0 84.5 -40.5t29.5 -102.5v-76q52 104 152 161.5t209 57.5q140 0 253 -75.5t173.5 -199.5t60.5 -270q0 -139 -62 -258t-174.5 -190.5t-250.5 -71.5 q-109 0 -204.5 48t-156.5 147v-398q0 -62 -29.5 -102.5t-84.5 -40.5q-29 0 -49.5 18.5t-20.5 46.5zM317 518q0 -162 99.5 -274.5t259.5 -112.5q159 0 258.5 114t99.5 275q0 103 -42.5 197t-126 155.5t-189.5 61.5q-65 0 -123 -24t-100 -65t-73.5 -94t-47 -113t-15.5 -120z " />
<glyph unicode="q" horiz-adv-x="1267" d="M102 520q0 145 61 269.5t173.5 200t253.5 75.5q113 0 207.5 -48.5t152.5 -154.5v60q0 62 30 102.5t85 40.5q29 0 49.5 -18.5t20.5 -47.5q0 -43 -39 -59q-15 -7 -15 -27v-1108q0 -9 3.5 -15.5t7.5 -8.5l4 -2q39 -16 39 -60q0 -28 -20.5 -46.5t-49.5 -18.5q-55 0 -85 40.5 t-30 102.5v404q-51 -98 -150.5 -149.5t-209.5 -51.5q-104 0 -195.5 42t-155 113t-100.5 166t-37 199zM233 520q0 -161 100 -275t259 -114q160 0 259 112.5t99 274.5q0 103 -42 197t-125.5 156.5t-190.5 62.5q-106 0 -190 -61.5t-126.5 -155.5t-42.5 -197z" />
<glyph unicode="r" horiz-adv-x="849" d="M133 66q0 43 39 59q14 7 14 27v761q0 9 -3.5 15.5t-6.5 9.5l-4 2q-39 16 -39 59q0 29 20.5 47.5t49.5 18.5q72 0 100 -74q6 -18 6 -43q38 59 105 93t143 34q98 0 186 -33q45 -17 45 -65q0 -37 -28 -55q-18 -12 -38 -11q-12 0 -24 4q-77 25 -141 25q-96 0 -168 -49.5 t-72 -140.5v-607q0 -62 -29.5 -102.5t-84.5 -40.5q-29 0 -49.5 18.5t-20.5 47.5z" />
<glyph unicode="s" horiz-adv-x="915" d="M92 788q0 121 108 204t253 83q165 0 288 -98q27 -24 27 -55q0 -38 -36 -56q-15 -8 -30 -7q-21 0 -43 15q-89 70 -206 70q-93 0 -161.5 -47t-68.5 -111q0 -34 22.5 -64t59.5 -52t74.5 -39.5t78.5 -33.5l9 -3q54 -22 95.5 -41.5t91 -50.5t82 -64t55 -78t22.5 -94 q0 -72 -37 -128t-96 -87t-123.5 -46t-128.5 -15q-73 0 -155.5 27t-147.5 69q-29 20 -29 55q0 38 35 55q14 7 28 7q23 0 50 -17q89 -65 227 -65q98 0 171 41.5t73 103.5q0 29 -13.5 54t-34 42.5t-53 35.5t-60.5 30t-67 28q-12 5 -18 7q-53 21 -89 37t-88.5 47t-84.5 62.5 t-56 78.5t-24 100z" />
<glyph unicode="t" horiz-adv-x="765" d="M61 999q0 26 16.5 46t41.5 20h69v156q0 9 -3.5 15.5t-6.5 8.5l-4 2q-39 16 -39 60q0 28 20.5 46.5t49.5 18.5q55 0 84.5 -40.5t29.5 -102.5v-164h234q25 0 41 -20t16 -46q0 -29 -19 -47t-46 -18h-226v-549q0 -43 3 -76t13.5 -68t28.5 -57.5t50 -37.5t75 -15t117 21 q30 7 54 -6.5t30 -39.5q3 -10 3 -20q-1 -14 -7 -28q-10 -22 -41 -33q-80 -25 -156 -25q-157 0 -229 99t-72 286v549h-61q-30 0 -48 19t-18 46z" />
<glyph unicode="u" horiz-adv-x="1277" d="M133 999q0 29 20.5 47.5t49.5 18.5q55 0 84.5 -40.5t29.5 -102.5v-455q0 -173 82 -254.5t256 -81.5q132 0 219 78.5t87 204.5v508q0 62 29.5 102.5t84.5 40.5q29 0 49.5 -18.5t20.5 -47.5q0 -43 -39 -59q-14 -7 -14 -27v-761q0 -9 3.5 -15.5t6.5 -8.5l4 -3q39 -16 39 -59 q0 -29 -20.5 -47.5t-49.5 -18.5q-63 0 -91 49q-24 42 -24 95q0 10 1 20q-41 -75 -136 -119.5t-174 -44.5q-229 0 -347 119t-118 348v446q0 9 -3.5 15.5t-6.5 9.5l-4 2q-39 16 -39 59z" />
<glyph unicode="v" horiz-adv-x="1134" d="M92 997q0 33 23.5 50.5t56.5 17.5q39 0 69 -24t44 -62l229 -608l51 -168h2l54 168l229 608q14 38 44 62t69 24q33 0 56 -17.5t23 -50.5q0 -24 -13.5 -42.5t-37.5 -22.5q-22 -4 -28 -25l-330 -856q-20 -51 -68 -51q-43 0 -63 51l-330 856q-6 21 -29 25q-24 4 -37.5 22.5 t-13.5 42.5z" />
<glyph unicode="w" horiz-adv-x="1736" d="M92 999q0 30 23 48t55 18q40 0 72 -26t43 -64l211 -604l49 -170h2l47 170l213 651q13 43 65 43q19 0 35.5 -11.5t22.5 -31.5l213 -651l45 -170h2l51 170l211 604q11 38 43 64t72 26q32 0 55 -18t23 -48q0 -25 -14.5 -42.5t-37.5 -22.5q-22 -4 -28 -23l-316 -866 q-22 -45 -61 -45q-22 0 -39 12.5t-23 32.5l-225 684l-33 113l-30 -113l-228 -684q-6 -20 -22.5 -32.5t-38.5 -12.5q-40 0 -62 45l-315 866q-6 19 -29 23t-37 22t-14 43z" />
<glyph unicode="x" horiz-adv-x="1150" d="M123 993q1 32 25.5 52t56.5 20q60 0 117 -76l253 -338l254 338q57 76 117 76q32 0 56.5 -20t25.5 -52q0 -25 -18 -44t-45 -19q-14 0 -31 -17l-281 -387l273 -370q13 -19 32 -19q27 0 44.5 -20.5t17.5 -48.5q0 -31 -25.5 -49.5t-58.5 -18.5q-60 2 -115 76l-246 327 l-245 -327q-55 -74 -115 -76q-33 0 -58.5 18.5t-25.5 49.5q0 28 17.5 48.5t44.5 20.5q19 0 32 19l273 370l-281 387q-17 17 -31 17q-27 0 -45 19t-18 44z" />
<glyph unicode="y" horiz-adv-x="1189" d="M92 995q0 34 23 52t57 18q40 0 70.5 -24t44.5 -62l252 -655l51 -179h2l53 177l258 657q15 39 46 62.5t73 23.5q32 0 54 -18.5t22 -49.5q0 -25 -13.5 -43t-37.5 -22q-18 -3 -29 -25l-359 -915q-30 -75 -46.5 -112.5t-55.5 -95.5t-82 -89q-60 -43 -137 -43q-64 0 -158 33 q-19 7 -31 26t-12 39q0 27 20.5 46.5t47.5 19.5q20 0 63 -14.5t66 -14.5q40 0 63 18q7 6 19 17.5t41.5 55t50.5 95.5q2 4 12 29l-348 903q-6 22 -29 25q-23 4 -37 22t-14 43z" />
<glyph unicode="z" horiz-adv-x="1058" d="M104 1049q0 28 18.5 48.5t47.5 20.5q43 0 59 -39q7 -14 27 -14h582q36 0 60 -23t24 -55q0 -26 -17 -49l-530 -719l-86 -94l123 6h411q9 0 15.5 3.5t9.5 7.5l2 3q16 39 59 39q29 0 47.5 -20.5t18.5 -48.5q0 -55 -41 -85t-103 -30h-634q-33 0 -54.5 21t-21.5 51q0 28 16 47 l545 731l82 90l-137 -6h-379q-62 0 -103 30t-41 85z" />
<glyph unicode="{" horiz-adv-x="665" d="M92 627q0 29 20 48t50 19q21 3 33 5.5t28.5 8t25 13.5t15 21.5t6.5 31.5q0 64 -25.5 195t-25.5 196q0 119 60 187q78 86 231 86q26 0 47 -20t21 -48q0 -25 -19 -44.5t-45 -20.5q-104 -5 -137 -43q-25 -29 -25 -97q0 -52 7.5 -110t21 -130t18.5 -110q13 -73 -16 -125 t-102 -63q72 -7 102.5 -59t15.5 -130q-5 -38 -18.5 -110t-21 -130t-7.5 -110q0 -67 25 -96q33 -38 137 -43q26 -1 45 -21t19 -45q0 -28 -21 -47.5t-47 -19.5q-153 0 -231 86q-60 68 -60 186q0 64 25.5 195t25.5 196q0 18 -6.5 31.5t-15 21.5t-25 13.5t-28.5 8t-33 5.5 q-29 0 -49.5 19.5t-20.5 48.5z" />
<glyph unicode="|" horiz-adv-x="585" d="M227 -244v1821q0 26 20 45.5t46 19.5q27 0 46 -19t19 -46v-1821q0 -27 -19 -46t-46 -19q-26 0 -46 19.5t-20 45.5z" />
<glyph unicode="}" horiz-adv-x="665" d="M88 -117q0 25 19 45t45 21q104 5 137 43q24 28 24 96q0 52 -7.5 110t-21 130t-18.5 110q-12 79 18 130.5t101 58.5q-73 11 -102.5 63.5t-16.5 124.5q5 38 18.5 110t21 130t7.5 110q0 69 -24 97q-33 38 -137 43q-26 1 -45 20.5t-19 44.5q0 28 21 48t47 20q153 0 231 -86 q59 -67 59 -187q0 -65 -25.5 -196t-25.5 -195q0 -23 8.5 -38t26.5 -23t32.5 -11.5t41.5 -7.5q29 0 49 -19t20 -48t-20 -48.5t-49 -19.5q-27 -4 -41.5 -7.5t-32.5 -11.5t-26.5 -23t-8.5 -38q0 -65 25.5 -196t25.5 -195q0 -119 -59 -186q-78 -86 -231 -86q-26 0 -47 19.5 t-21 47.5z" />
<glyph unicode="~" horiz-adv-x="1167" d="M160 629q33 85 104.5 145t147.5 60q67 0 147 -46q11 -6 64 -41t94 -54t74 -19q61 0 114 114q8 15 23 25.5t30 9.5q38 -4 49.5 -38t-6.5 -58q-25 -49 -49.5 -82.5t-66 -60.5t-90.5 -27q-53 0 -106.5 24.5t-91 53.5t-87.5 53.5t-96 24.5q-48 0 -90 -39t-58 -88 q-14 -39 -55 -39q-33 0 -47.5 27.5t-3.5 54.5z" />
<glyph unicode="&#xa1;" horiz-adv-x="591" d="M207 893q0 39 26.5 65.5t65.5 26.5q38 0 63 -27.5t25 -66.5q0 -36 -26 -61t-62 -25q-39 0 -65.5 25t-26.5 63zM227 -408l27 1053q0 23 13 36t32 13q18 0 30.5 -13.5t12.5 -37.5l25 -1051q0 -27 -21 -45t-51 -18q-28 0 -48 18t-20 45z" />
<glyph unicode="&#xa2;" horiz-adv-x="1116" d="M102 530q0 205 135.5 359t335.5 182v123q0 31 20.5 49t45.5 18t45.5 -18t20.5 -49v-119q150 -15 274 -110q23 -18 30.5 -41t-1.5 -41.5t-25 -31.5t-40 -11.5t-46 18.5q-92 70 -192 82v-815q106 16 192 84q21 17 44.5 18t39.5 -12t25 -31t2.5 -41t-29.5 -41 q-117 -94 -274 -110v-135q0 -32 -20.5 -49.5t-45.5 -16.5t-45.5 18.5t-20.5 47.5v139q-200 26 -335.5 178.5t-135.5 355.5zM231 530q0 -148 97.5 -260.5t244.5 -140.5v807q-147 -27 -244.5 -140.5t-97.5 -265.5z" />
<glyph unicode="&#xa3;" horiz-adv-x="1165" d="M115 676q0 27 19 46t46 19h47v246q0 115 53 217.5t150 166t213 63.5t213 -64t150 -166.5t53 -216.5q0 -28 -19 -46.5t-47 -18.5t-46.5 18.5t-18.5 46.5q0 125 -81.5 220.5t-203.5 95.5t-203.5 -95.5t-81.5 -220.5v-246h457q27 0 45.5 -18.5t18.5 -46.5q0 -26 -19 -46 t-45 -20h-457v-440q0 -31 -10 -39h651q28 0 47 -18.5t19 -46.5q0 -27 -19.5 -46.5t-46.5 -19.5h-778q-27 0 -46 19.5t-19 46.5q0 48 45 61q26 7 26 35v448h-47q-26 0 -45.5 20t-19.5 46z" />
<glyph unicode="&#xa5;" horiz-adv-x="1343" d="M90 1360q-1 34 26.5 54t63.5 20q70 0 109 -64l385 -641l387 641q39 64 108 64q34 0 61 -20t27 -54q0 -48 -36 -62q-8 -3 -22 -3.5t-24.5 -4.5t-17.5 -16l-418 -690h213q28 0 47 -19t19 -47q0 -26 -19 -45.5t-47 -19.5h-213v-74h213q28 0 47 -19t19 -47q0 -26 -19 -44.5 t-47 -18.5h-213v-184q0 -28 -19.5 -48t-45.5 -20t-46 20t-20 48v182h-211q-27 0 -46 19t-19 46q0 28 18.5 47t46.5 19h211v74h-211q-27 0 -46 19t-19 46q0 28 18.5 47t46.5 19h211l-415 690q-5 8 -12 11.5t-18.5 4.5t-15.5 2q-55 11 -57 68z" />
<glyph unicode="&#xa7;" horiz-adv-x="1232" d="M115 535q0 51 22 97.5t59.5 81.5t78.5 60.5t87 44.5q-35 13 -98 47q-65 35 -105 90.5t-44 124.5q-3 170 157 271q137 90 338 90q182 0 334 -82q33 -20 33 -60q0 -29 -20 -47t-50 -18q-17 0 -30 8q-112 66 -267 66q-50 0 -109 -12t-117.5 -35.5t-97 -66.5t-38.5 -97 q0 -72 82 -117q71 -39 154 -62.5t185.5 -44t161.5 -38.5q289 -86 289 -308q0 -55 -24.5 -103.5t-66 -83.5t-84.5 -59.5t-91 -41.5q55 -23 95.5 -45.5t81 -56t62 -79t21.5 -100.5q0 -73 -37 -133.5t-94.5 -98.5t-129.5 -65t-139 -38t-126 -11q-200 0 -355 82q-36 20 -36 59 q0 27 18 48.5t45 21.5q17 0 37 -10q121 -66 289 -66q41 0 89.5 6.5t103.5 22t99 38.5t73.5 60t29.5 82q0 72 -90 121q-33 18 -66.5 31.5t-74.5 25t-65 18t-76.5 18t-71.5 15.5q-64 15 -116.5 31.5t-111.5 46t-99.5 65.5t-67.5 89t-27 117zM248 528q0 -48 37 -88.5t91.5 -64 t110 -36.5t99.5 -13q165 0 288 69q109 68 109 133q0 50 -43 91t-105.5 63.5t-122 34.5t-102.5 12q-48 0 -106.5 -11.5t-117.5 -33.5t-98.5 -63t-39.5 -93z" />
<glyph unicode="&#xa8;" horiz-adv-x="1198" d="M252 1339q0 47 34.5 79t82.5 32q47 0 81.5 -32.5t34.5 -78.5t-34.5 -78t-81.5 -32q-48 0 -82.5 31.5t-34.5 78.5zM713 1339q0 46 34.5 78.5t81.5 32.5q48 0 82.5 -32t34.5 -79t-34.5 -78.5t-82.5 -31.5q-47 0 -81.5 32t-34.5 78z" />
<glyph unicode="&#xa9;" horiz-adv-x="1630" d="M88 727q0 197 97.5 364.5t265 265t364.5 97.5t364.5 -97.5t265 -265t97.5 -364.5q0 -196 -98 -363.5t-265.5 -265.5t-363.5 -98q-197 0 -364.5 97.5t-265 265t-97.5 364.5zM137 727q0 -137 53.5 -262.5t144.5 -216.5t216.5 -145t263.5 -54q137 0 262.5 54t216 145 t144 216.5t53.5 262.5q0 183 -91 339.5t-247 247.5t-338 91q-137 0 -262.5 -54t-216.5 -145t-145 -216.5t-54 -262.5zM461 729q0 -151 107 -259t257 -108q107 0 195 60q24 15 24 41q0 21 -16 36t-37 15q-8 0 -24 -8q-64 -43 -144 -43q-108 0 -185 78.5t-77 185.5 q0 109 77.5 186.5t186.5 77.5q67 0 125 -30q17 -11 37.5 -5t30.5 25q21 43 -21 68q-79 43 -172 43q-149 0 -256.5 -107t-107.5 -256z" />
<glyph unicode="&#xaa;" horiz-adv-x="864" d="M98 567q0 26 17 43t43 17h522q26 0 41.5 -16.5t15.5 -43.5q0 -25 -15.5 -41t-41.5 -16h-522q-26 0 -43 16t-17 41zM125 963q0 137 94.5 210.5t231.5 73.5q53 0 147 -16q0 24 -1.5 40.5t-3 22t-4 11.5t-3.5 10q-17 27 -56.5 45t-76.5 18q-90 0 -174 -35q-21 -11 -43.5 5 t-22.5 45q0 43 45 61q91 31 195 31q73 -2 139 -37.5t96 -101.5q17 -38 17 -138v-360q2 -11 8 -17q22 -18 22 -45q0 -23 -14.5 -39t-38.5 -16q-30 0 -51.5 16.5t-24.5 40.5q-89 -59 -203 -59q-119 0 -198.5 59t-79.5 175zM236 963q0 -63 49 -96t118 -33q73 0 134 44t61 113 v125q-107 21 -152 21q-94 0 -152 -44t-58 -130z" />
<glyph unicode="&#xab;" horiz-adv-x="1003" d="M92 535q0 26 17 43l383 438q19 22 51 22q27 0 46 -20t19 -47q0 -24 -16 -43l-346 -393l346 -398q16 -19 16 -43q0 -26 -19.5 -45.5t-47.5 -19.5q-33 0 -49 22l-383 441q-17 17 -17 43zM369 535q0 24 16 43l385 438q19 22 49 22q27 0 46.5 -20t19.5 -45t-17 -45l-346 -393 l348 -398q15 -18 15 -43q0 -26 -20 -45.5t-46 -19.5q-33 0 -49 22l-385 441q-16 19 -16 43z" />
<glyph unicode="&#xad;" horiz-adv-x="950" d="M115 592q0 27 17 46t44 19h594q26 0 46 -18t20 -45q0 -26 -18 -45t-44 -19h-594q-27 0 -46 18t-19 44z" />
<glyph unicode="&#xae;" horiz-adv-x="1013" d="M49 983q0 189 134.5 323t324.5 134q189 0 323 -134t134 -323t-134 -324t-323 -135q-190 0 -324.5 134t-134.5 325zM88 983q0 -173 123.5 -296.5t296.5 -123.5q168 0 293 124t125 296t-123 295t-295 123q-113 0 -209.5 -56.5t-153.5 -153t-57 -208.5zM305 758q0 16 14 22 q5 2 5 8v383l-2 5q-17 7 -17 22q0 12 9 19.5t20 7.5h186q58 0 98.5 -40.5t40.5 -99.5q0 -47 -27 -85t-69 -52l90 -155q3 -7 11 -7q9 0 16.5 -7.5t7.5 -16.5q0 -13 -10.5 -22t-24.5 -9q-25 0 -43 29l-102 182h-131v-158q0 -22 -11 -37.5t-32 -15.5q-11 0 -20 7.5t-9 19.5z M377 995h143q37 0 62.5 26t25.5 64q0 37 -25.5 63t-62.5 26h-143v-179z" />
<glyph unicode="&#xaf;" horiz-adv-x="956" d="M172 1268q0 23 16.5 39t38.5 16h500q23 0 40 -16t17 -39t-17 -39.5t-40 -16.5h-500q-23 0 -39 16.5t-16 39.5z" />
<glyph unicode="&#xb0;" horiz-adv-x="663" d="M131 1231q0 85 59 144t142 59t141.5 -59t58.5 -144q0 -83 -58.5 -142t-141.5 -59t-142 59t-59 142zM242 1231q0 -37 26.5 -63.5t63.5 -26.5t62.5 26.5t25.5 63.5t-25.5 62.5t-62.5 25.5t-63.5 -25.5t-26.5 -62.5z" />
<glyph unicode="&#xb1;" horiz-adv-x="993" d="M131 780q0 27 19.5 46.5t46.5 19.5h235v235q0 28 19 47t47 19q26 0 44.5 -19.5t18.5 -46.5v-235h236q28 0 46.5 -19t18.5 -47q0 -26 -18.5 -44.5t-46.5 -18.5h-236v-236q0 -28 -18.5 -46.5t-44.5 -18.5q-28 0 -47 18.5t-19 46.5v236h-235q-27 0 -46.5 18.5t-19.5 44.5z M160 276q0 28 19 47t46 19h537q28 0 47.5 -19t19.5 -47t-19.5 -47.5t-47.5 -19.5h-537q-26 0 -45.5 19.5t-19.5 47.5z" />
<glyph unicode="&#xb2;" horiz-adv-x="856" d="M96 573q0 161 262 334q108 74 168 137.5t60 120.5q0 90 -50.5 129t-146.5 39q-56 0 -103 -22.5t-71 -67.5q-18 -31 -49 -31q-30 0 -43.5 25t-1.5 51q37 73 108 109.5t160 36.5q138 0 217.5 -68t79.5 -201q0 -57 -31 -111.5t-78 -95.5t-105 -85.5t-110 -80.5t-95 -80.5 t-58 -86.5h444q24 0 37.5 -16.5t13.5 -36t-13.5 -36t-37.5 -16.5h-506q-20 0 -35.5 15.5t-15.5 37.5z" />
<glyph unicode="&#xb3;" horiz-adv-x="784" d="M49 793q0 22 14 37.5t35 15.5q25 0 41.5 -15.5t16.5 -37.5q0 -20 6 -41q21 -61 83 -95t130 -34q51 0 101.5 20t86 60.5t35.5 89.5q0 72 -71 120t-150 48q-22 0 -38.5 15t-16.5 38q0 21 15.5 36t39.5 15q64 0 120 37.5t56 95.5t-55.5 95.5t-120.5 37.5q-128 0 -176 -96 q-10 -25 -47 -25q-18 0 -34 14.5t-16 35.5l5 22q30 78 103.5 115t164.5 37q107 0 191.5 -65.5t84.5 -168.5q0 -124 -104 -180q68 -27 112 -90t44 -137q0 -82 -51 -146t-125.5 -95.5t-153.5 -31.5t-152.5 32.5t-123.5 96.5t-50 144z" />
<glyph unicode="&#xb4;" horiz-adv-x="1093" d="M391 1276q3 22 21 37l237 198q18 15 41 15q37 0 63.5 -29t26.5 -67q0 -49 -39 -66l-284 -129q-12 -6 -23 -6q-17 0 -30 14.5t-13 32.5z" />
<glyph unicode="&#xb5;" horiz-adv-x="1251" d="M123 999q0 29 20.5 47.5t49.5 18.5q54 0 85 -43t31 -100v-473q0 -163 84 -240.5t254 -77.5q131 0 218 83t87 210v498q0 57 31.5 100t85.5 43q29 0 49.5 -18.5t20.5 -47.5q0 -19 -11 -35.5t-30 -23.5q-15 -7 -15 -27v-761q0 -9 3.5 -15.5t7.5 -8.5l4 -3q19 -7 30 -23.5 t11 -35.5q0 -29 -20.5 -47.5t-49.5 -18.5q-53 0 -84 40t-33 95q-40 -73 -129.5 -104t-179.5 -31q-219 0 -334 106v-434q0 -57 -30 -100t-84 -43q-29 0 -49.5 18.5t-20.5 46.5q0 44 39 60q14 7 14 27v1232q0 9 -3.5 15.5t-6.5 9.5l-4 2q-19 7 -30 23.5t-11 35.5z" />
<glyph unicode="&#xb6;" horiz-adv-x="1073" d="M88 1030q0 167 118.5 285.5t285.5 118.5h344q28 0 46.5 -19t18.5 -47q0 -22 -11.5 -36.5t-24.5 -19.5t-24.5 -15t-11.5 -25v-1116q0 -17 26 -41t26 -49q0 -28 -19 -47t-47 -19q-54 0 -85.5 40t-31.5 95v490h-217q-163 0 -278 120t-115 285z" />
<glyph unicode="&#xb7;" horiz-adv-x="550" d="M147 639q0 54 37.5 91.5t91.5 37.5q53 0 90 -37.5t37 -91.5q0 -53 -37.5 -90t-89.5 -37q-54 0 -91.5 37t-37.5 90z" />
<glyph unicode="&#xb8;" horiz-adv-x="1157" d="M328 -279q0 27 16.5 44.5t44.5 17.5q20 0 39 -16q45 -31 88 -31q41 0 69.5 17.5t28.5 51.5q0 33 -30.5 49.5t-67.5 20.5q-25 3 -42 19.5t-17 39.5q0 11 2 17l20 80q0 5 2 13t15 21t34 13q20 0 31.5 -12t11.5 -27v-8l-12 -76q88 0 142.5 -48t54.5 -114q0 -89 -70 -135.5 t-164 -46.5q-113 0 -180 67q-16 19 -16 43z" />
<glyph unicode="&#xb9;" horiz-adv-x="604" d="M144 1248.5q-3 26.5 20 51.5l133 119q15 15 37 15q21 0 36 -14.5t15 -39.5v-759h72q22 0 35 -16t13.5 -34.5t-12.5 -34.5t-36 -16h-248q-32 0 -45 25t0.5 50.5t44.5 25.5h72v647q-7 -7 -16.5 -15.5t-21 -17.5t-16.5 -14q-27 -21 -53.5 -10t-29.5 37.5z" />
<glyph unicode="&#xba;" horiz-adv-x="923" d="M76 567q0 26 16.5 43t42.5 17h637q26 0 41.5 -16.5t15.5 -43.5q0 -25 -15.5 -41t-41.5 -16h-637q-26 0 -42.5 16t-16.5 41zM78 1116q0 158 112.5 269.5t272.5 111.5t272.5 -111.5t112.5 -269.5q0 -161 -112.5 -276t-272.5 -115t-272.5 115t-112.5 276zM201 1116 q0 -111 77.5 -187.5t184.5 -76.5q106 0 182 76.5t76 187.5q0 103 -77 177.5t-181 74.5q-106 0 -184 -74.5t-78 -177.5z" />
<glyph unicode="&#xbb;" horiz-adv-x="1001" d="M117 94q0 26 14 43l348 398l-346 393q-16 19 -16 45q0 25 19 45t46 20q30 0 49 -22l385 -438q17 -20 17 -43t-17 -43l-385 -441q-17 -22 -49 -22q-26 0 -45.5 19.5t-19.5 45.5zM393 94q0 -26 20 -45.5t48 -19.5q33 0 49 22l383 441q16 16 16 43t-16 43l-383 438 q-19 22 -51 22q-27 0 -46.5 -20t-19.5 -47q0 -23 17 -43l346 -393l-346 -398q-17 -20 -17 -43z" />
<glyph unicode="&#xbc;" horiz-adv-x="1748" d="M174 1255q0 26 19 45l133 119q15 15 36 15t36.5 -14.5t15.5 -39.5v-764h73q20 0 35 -15.5t15 -35.5q0 -21 -14.5 -35t-35.5 -14h-251q-22 0 -36 14t-14 35q0 20 15 35.5t35 15.5h73v652q-5 -5 -53 -47q-16 -13 -35 -13q-21 0 -34 13t-13 34zM514 78l565 1319q15 37 58 37 q34 0 55.5 -26.5t11.5 -59.5q-363 -836 -571 -1321q-6 -16 -23.5 -24.5t-38.5 -8.5q-34 0 -51.5 26.5t-5.5 57.5zM897 270q0 21 12 39q161 195 451 565q15 21 41 21q21 0 36 -14t15 -37v-520h70q21 0 37 -15.5t16 -38.5q0 -21 -16 -37t-37 -16h-70v-164q0 -22 -15.5 -37.5 t-35.5 -15.5q-23 0 -37 15.5t-14 37.5v164h-402q-20 0 -35.5 15.5t-15.5 37.5zM1053 324h297v370z" />
<glyph unicode="&#xbd;" horiz-adv-x="1851" d="M174 1257q0 22 21 43l133 119q15 15 37 15q21 0 36 -14.5t15 -39.5v-764h73q20 0 35 -15.5t15 -35.5q0 -21 -14.5 -35t-35.5 -14h-251q-22 0 -36 14t-14 35q0 20 15 35.5t35 15.5h73v652q-5 -5 -53 -47q-16 -13 -35 -13q-21 0 -35 14t-14 35zM502 51q0 15 6 27l565 1319 q15 37 57 37q35 0 56.5 -26.5t11.5 -59.5q-363 -836 -571 -1321q-6 -16 -23.5 -24.5t-38.5 -8.5q-26 0 -44.5 17t-18.5 40zM1067 57q0 46 20.5 91t59 86.5t72.5 70.5t81 64q14 10 53.5 35t68.5 45.5t61.5 48t50.5 58.5t18 62q0 90 -49.5 138.5t-138.5 48.5q-54 0 -101 -23 t-73 -71q-13 -18 -34.5 -20.5t-38.5 8t-26.5 28t1.5 41.5q33 74 106.5 109.5t165.5 35.5q134 0 215.5 -79.5t81.5 -215.5q0 -48 -21 -92.5t-61.5 -84t-76.5 -67t-89 -61.5q-70 -47 -135.5 -103t-89.5 -97h436q23 0 38 -15.5t15 -40.5t-15 -41t-38 -16h-502q-23 0 -39 16 t-16 41z" />
<glyph unicode="&#xbe;" horiz-adv-x="1931" d="M174 793q0 22 13.5 37t35.5 16q27 1 42.5 -14.5t15.5 -38.5q0 -75 68.5 -122.5t150.5 -47.5q51 0 101.5 20t86 60.5t35.5 89.5q0 72 -71 120t-150 48q-22 0 -39 15t-17 38q0 21 16 36t40 15q64 0 120 37.5t56 95.5t-55.5 95.5t-120.5 37.5q-128 0 -176 -96 q-10 -25 -47 -25q-18 0 -34 14.5t-16 35.5l4 22q30 78 103.5 115t165.5 37q107 0 191.5 -65.5t84.5 -168.5q0 -124 -104 -180q68 -26 111.5 -89.5t43.5 -137.5q0 -82 -51 -146t-125 -95.5t-153 -31.5t-152.5 32.5t-123.5 96.5t-50 144zM696 78l566 1319q15 37 57 37 q35 0 56 -27t11 -59q-363 -836 -571 -1321q-11 -33 -61 -33q-34 0 -53 27.5t-5 56.5zM1079 270q0 23 13 39q324 404 450 565q15 21 41 21q21 0 36 -14t15 -37v-520h70q21 0 37 -15.5t16 -38.5q0 -21 -16 -37t-37 -16h-70v-164q0 -22 -14.5 -37.5t-34.5 -15.5q-25 0 -39 15 t-14 38v164h-402q-20 0 -35.5 15.5t-15.5 37.5zM1235 324h297v370z" />
<glyph unicode="&#xbf;" horiz-adv-x="833" d="M86 -119q0 113 47 188.5t148 166.5q79 70 118.5 130.5t42.5 145.5l4 123q1 27 17 41t39 14q22 0 37 -15t16 -42l6 -121q3 -58 -10 -108t-43 -96t-60 -80t-79 -81q-77 -75 -99 -104q-55 -72 -55 -158q0 -110 75.5 -173.5t186.5 -63.5q128 0 238 76q29 20 59.5 3t30.5 -53 q0 -27 -27 -47q-60 -48 -139.5 -74t-159.5 -26q-164 0 -278.5 97t-114.5 257zM410 893q0 37 26.5 62.5t63.5 25.5q38 0 64 -26t26 -62q0 -38 -26 -65t-64 -27q-37 0 -63.5 26.5t-26.5 65.5z" />
<glyph unicode="&#xc0;" d="M96 68q0 24 13.5 41.5t37.5 23.5q21 3 27 25l461 1235q17 51 76 51q58 0 75 -51l461 -1235q6 -22 27 -25q24 -6 37.5 -23.5t13.5 -41.5q0 -30 -23 -49t-53 -19q-43 0 -75.5 29.5t-49.5 72.5l-108 295h-610l-109 -295q-17 -43 -49.5 -72.5t-75.5 -29.5q-30 0 -53 19 t-23 49zM451 528h520l-209 547l-51 164h-2l-50 -164zM512 1808q0 38 24.5 66.5t61.5 28.5q29 0 45 -13l238 -198q17 -14 20 -37q0 -18 -13 -32.5t-30 -14.5q-10 0 -22 6l-285 129q-39 17 -39 65z" />
<glyph unicode="&#xc1;" d="M96 68q0 24 13.5 41.5t37.5 23.5q21 3 27 25l461 1235q17 51 76 51q58 0 75 -51l461 -1235q6 -22 27 -25q24 -6 37.5 -23.5t13.5 -41.5q0 -30 -23 -49t-53 -19q-43 0 -75.5 29.5t-49.5 72.5l-108 295h-610l-109 -295q-17 -43 -49.5 -72.5t-75.5 -29.5q-30 0 -53 19 t-23 49zM451 528h520l-209 547l-51 164h-2l-50 -164zM514 1653q3 22 21 37l237 198q18 15 41 15q37 0 63.5 -29.5t26.5 -67.5q0 -48 -39 -65l-284 -129q-12 -6 -23 -6q-17 0 -30 14.5t-13 32.5z" />
<glyph unicode="&#xc2;" d="M96 68q0 24 13.5 41.5t37.5 23.5q21 3 27 25l461 1235q17 51 76 51q58 0 75 -51l461 -1235q6 -22 27 -25q24 -6 37.5 -23.5t13.5 -41.5q0 -30 -23 -49t-53 -19q-43 0 -75.5 29.5t-49.5 72.5l-108 295h-610l-109 -295q-17 -43 -49.5 -72.5t-75.5 -29.5q-30 0 -53 19 t-23 49zM451 528h520l-209 547l-51 164h-2l-50 -164zM465 1649q0 19 14 30l176 168q27 23 56 23q28 0 55 -23l176 -168q14 -11 14 -30q0 -20 -14 -36t-35 -16q-10 0 -28 9l-168 106l-168 -106q-18 -9 -29 -9q-21 0 -35 16t-14 36z" />
<glyph unicode="&#xc3;" d="M96 68q0 24 13.5 41.5t37.5 23.5q21 3 27 25l461 1235q17 51 76 51q58 0 75 -51l461 -1235q6 -22 27 -25q24 -6 37.5 -23.5t13.5 -41.5q0 -30 -23 -49t-53 -19q-43 0 -75.5 29.5t-49.5 72.5l-108 295h-610l-109 -295q-17 -43 -49.5 -72.5t-75.5 -29.5q-30 0 -53 19 t-23 49zM393 1667q0 11 4.5 24t8.5 20.5t13 22.5t11 19q64 90 162 96q44 0 89 -25.5t86 -51t75 -25.5q9 0 17.5 3t13 5.5t10.5 10.5t8.5 11.5t8.5 14.5t7 14q8 15 23.5 25t32.5 10q37 0 57 -30.5t2 -67.5q-65 -137 -172 -137q-35 0 -74 17t-67.5 37t-60.5 37t-54 17 q-43 0 -72 -61q-22 -49 -63 -49q-27 0 -46.5 18t-19.5 45zM451 528h520l-209 547l-51 164h-2l-50 -164z" />
<glyph unicode="&#xc4;" d="M96 68q0 24 13.5 41.5t37.5 23.5q21 3 27 25l461 1235q17 51 76 51q58 0 75 -51l461 -1235q6 -22 27 -25q24 -6 37.5 -23.5t13.5 -41.5q0 -30 -23 -49t-53 -19q-43 0 -75.5 29.5t-49.5 72.5l-108 295h-610l-109 -295q-17 -43 -49.5 -72.5t-75.5 -29.5q-30 0 -53 19 t-23 49zM365 1716q0 47 34 79t82 32q47 0 82 -32.5t35 -78.5t-35 -78t-82 -32q-48 0 -82 31.5t-34 78.5zM451 528h520l-209 547l-51 164h-2l-50 -164zM825 1716q0 46 35 78.5t82 32.5q48 0 82.5 -32t34.5 -79t-34.5 -78.5t-82.5 -31.5q-47 0 -82 32t-35 78z" />
<glyph unicode="&#xc5;" d="M96 68q0 24 13.5 41.5t37.5 23.5q21 3 27 25l461 1239q-31 16 -55 47q-37 46 -37 104q0 69 51.5 118.5t120.5 49.5q71 0 122.5 -49.5t51.5 -118.5q0 -77 -55 -123q-21 -18 -48 -30l461 -1237q6 -22 27 -25q24 -6 37.5 -23.5t13.5 -41.5q0 -30 -23 -49t-53 -19 q-43 0 -75.5 29.5t-49.5 72.5l-108 295h-610l-109 -295q-17 -43 -49.5 -72.5t-75.5 -29.5q-30 0 -53 19t-23 49zM451 528h520l-209 547l-51 166h-2l-50 -166zM604 1548q0 -44 32 -73t79 -29q48 2 80 30t32 72q0 45 -33 75t-79 30q-44 0 -77.5 -30t-33.5 -75z" />
<glyph unicode="&#xc6;" horiz-adv-x="1992" d="M96 68q0 25 17.5 43.5t40.5 21.5q26 0 57 62l645 1202q16 37 59 37h873q28 0 47.5 -20t19.5 -46q0 -28 -19.5 -48t-47.5 -20h-758q2 -6 2 -20v-516h637q27 0 45.5 -18.5t18.5 -45.5q0 -28 -18.5 -47.5t-45.5 -19.5h-637v-461q0 -31 -10 -39h807q26 0 44.5 -19.5 t18.5 -47.5q0 -27 -18.5 -46.5t-44.5 -19.5h-934q-27 0 -46.5 20.5t-19.5 47.5q0 48 43 61q27 10 27 37v225h-438l-133 -256q-69 -135 -158 -135q-30 0 -52 19t-22 49zM528 524h371v668z" />
<glyph unicode="&#xc7;" horiz-adv-x="1347" d="M123 715q0 144 57.5 278t154 233.5t231 159.5t280.5 60q187 0 354 -86q33 -20 33 -60q0 -27 -19 -47t-47 -20q-10 0 -30 8q-138 74 -287 74q-161 0 -298.5 -81t-217.5 -219.5t-80 -299.5q0 -160 81 -297.5t219 -218t298 -80.5q179 0 322 94q15 10 36 10q27 0 46.5 -19 t19.5 -46q0 -39 -31 -58q-180 -112 -393 -112q-9 0 -26.5 1t-26.5 1l-4 -35q87 0 141.5 -48t54.5 -114q0 -89 -69.5 -135.5t-163.5 -46.5q-113 0 -180 67q-17 20 -17 43q0 27 16.5 44.5t45.5 17.5q20 0 39 -16q45 -31 88 -31q41 0 69.5 17.5t28.5 51.5q0 33 -30.5 49.5 t-67.5 20.5q-28 3 -46.5 25t-11.5 51l13 51q-166 35 -299 139t-208 255t-75 319z" />
<glyph unicode="&#xc8;" horiz-adv-x="1341" d="M195 66q0 44 38 59q15 7 15 27v1130q0 9 -4 15.5t-8 8.5l-3 3q-38 15 -38 59q0 29 20.5 47.5t48.5 18.5h873q27 0 46 -19.5t19 -46.5q0 -28 -18.5 -46.5t-46.5 -18.5h-768q10 -10 10 -39v-500h637q27 0 46 -19.5t19 -46.5q0 -28 -18.5 -46.5t-46.5 -18.5h-637v-463 q0 -29 -10 -39h807q28 0 46.5 -17.5t18.5 -45.5t-19 -48t-46 -20h-912q-28 0 -48.5 18.5t-20.5 47.5zM487 1808q0 38 24.5 66.5t61.5 28.5q29 0 45 -13l238 -198q18 -15 21 -37q0 -18 -13 -32.5t-30 -14.5q-11 0 -23 6l-285 129q-39 17 -39 65z" />
<glyph unicode="&#xc9;" horiz-adv-x="1341" d="M195 66q0 44 38 59q15 7 15 27v1130q0 9 -4 15.5t-8 8.5l-3 3q-38 15 -38 59q0 29 20.5 47.5t48.5 18.5h873q27 0 46 -19.5t19 -46.5q0 -28 -18.5 -46.5t-46.5 -18.5h-768q10 -10 10 -39v-500h637q27 0 46 -19.5t19 -46.5q0 -28 -18.5 -46.5t-46.5 -18.5h-637v-463 q0 -29 -10 -39h807q28 0 46.5 -17.5t18.5 -45.5t-19 -48t-46 -20h-912q-28 0 -48.5 18.5t-20.5 47.5zM532 1653q3 22 21 37l238 198q18 15 40 15q37 0 64 -29.5t27 -67.5q0 -48 -39 -65l-285 -129q-12 -6 -23 -6q-17 0 -30 14.5t-13 32.5z" />
<glyph unicode="&#xca;" horiz-adv-x="1341" d="M195 66q0 44 38 59q15 7 15 27v1130q0 9 -4 15.5t-8 8.5l-3 3q-38 15 -38 59q0 29 20.5 47.5t48.5 18.5h873q27 0 46 -19.5t19 -46.5q0 -28 -18.5 -46.5t-46.5 -18.5h-768q10 -10 10 -39v-500h637q27 0 46 -19.5t19 -46.5q0 -28 -18.5 -46.5t-46.5 -18.5h-637v-463 q0 -29 -10 -39h807q28 0 46.5 -17.5t18.5 -45.5t-19 -48t-46 -20h-912q-28 0 -48.5 18.5t-20.5 47.5zM469 1649q0 19 14 30l176 168q27 23 56 23q28 0 55 -23l176 -168q15 -12 15 -30q0 -20 -14.5 -36t-35.5 -16q-10 0 -28 9l-168 106l-168 -106q-18 -9 -29 -9q-21 0 -35 16 t-14 36z" />
<glyph unicode="&#xcb;" horiz-adv-x="1341" d="M195 66q0 44 38 59q15 7 15 27v1130q0 9 -4 15.5t-8 8.5l-3 3q-38 15 -38 59q0 29 20.5 47.5t48.5 18.5h873q27 0 46 -19.5t19 -46.5q0 -28 -18.5 -46.5t-46.5 -18.5h-768q10 -10 10 -39v-500h637q27 0 46 -19.5t19 -46.5q0 -28 -18.5 -46.5t-46.5 -18.5h-637v-463 q0 -29 -10 -39h807q28 0 46.5 -17.5t18.5 -45.5t-19 -48t-46 -20h-912q-28 0 -48.5 18.5t-20.5 47.5zM369 1716q0 47 34 79t82 32q47 0 82 -32.5t35 -78.5t-35 -78t-82 -32q-48 0 -82 31.5t-34 78.5zM829 1716q0 46 35 78.5t82 32.5q48 0 82.5 -32t34.5 -79t-34.5 -78.5 t-82.5 -31.5q-47 0 -82 32t-35 78z" />
<glyph unicode="&#xcc;" horiz-adv-x="540" d="M70 1808q0 38 24.5 66.5t61.5 28.5q29 0 45 -13l237 -198q18 -15 21 -37q0 -18 -13 -32.5t-30 -14.5q-11 0 -23 6l-284 129q-39 17 -39 65zM205 66v1302q0 26 19.5 46t45.5 20q27 0 46.5 -19.5t19.5 -46.5v-1302q0 -27 -19.5 -46.5t-46.5 -19.5q-26 0 -45.5 20t-19.5 46z " />
<glyph unicode="&#xcd;" horiz-adv-x="540" d="M92 1653q3 22 21 37l237 198q18 15 41 15q37 0 63.5 -29.5t26.5 -67.5q0 -48 -39 -65l-284 -129q-12 -6 -23 -6q-17 0 -30 14.5t-13 32.5zM205 66q0 -26 19.5 -46t45.5 -20q27 0 46.5 19.5t19.5 46.5v1302q0 27 -19.5 46.5t-46.5 19.5q-26 0 -45.5 -20t-19.5 -46v-1302z " />
<glyph unicode="&#xce;" horiz-adv-x="540" d="M25 1649q0 19 14 30l176 168q27 23 55 23q29 0 56 -23l176 -168q14 -11 14 -30q0 -20 -14 -36t-35 -16q-11 0 -29 9l-168 106l-168 -106q-18 -9 -28 -9q-21 0 -35 16t-14 36zM205 66v1302q0 26 19.5 46t45.5 20q27 0 46.5 -19.5t19.5 -46.5v-1302q0 -27 -19.5 -46.5 t-46.5 -19.5q-26 0 -45.5 20t-19.5 46z" />
<glyph unicode="&#xcf;" horiz-adv-x="540" d="M-76 1716q0 47 34.5 79t82.5 32q47 0 82 -32.5t35 -78.5t-35 -78t-82 -32q-48 0 -82.5 31.5t-34.5 78.5zM205 66q0 -26 19.5 -46t45.5 -20q27 0 46.5 19.5t19.5 46.5v1302q0 27 -19.5 46.5t-46.5 19.5q-26 0 -45.5 -20t-19.5 -46v-1302zM385 1716q0 46 35 78.5t82 32.5 q48 0 82 -32t34 -79t-34 -78.5t-82 -31.5q-47 0 -82 32t-35 78z" />
<glyph unicode="&#xd0;" horiz-adv-x="1548" d="M92 717q0 26 19.5 44.5t46.5 18.5h125v492q0 28 -27 35q-45 14 -45 61q0 28 20 47t48 19h512q141 0 260.5 -59.5t199 -159t124 -229t44.5 -269.5t-44.5 -269.5t-124 -229t-199 -159t-260.5 -59.5h-512q-28 0 -48 20t-20 48q0 45 45 59q27 10 27 37v485h-125q-26 0 -46 20 t-20 48zM403 131h388q113 0 208 48.5t157.5 129.5t97 186.5t34.5 221.5q0 115 -34 219.5t-96.5 185t-157.5 129.5t-209 52h-388q11 -11 11 -41v-482h280q28 0 48 -18.5t20 -44.5q0 -28 -20 -48t-48 -20h-280v-479q0 -30 -11 -39z" />
<glyph unicode="&#xd1;" horiz-adv-x="1564" d="M195 66q0 44 38 59q15 7 15 27v1130q0 9 -4 15.5t-8 8.5l-3 3q-38 15 -38 59q0 29 20.5 47.5t48.5 18.5q35 0 58.5 -17t48.5 -49l700 -911l119 -170h2l-6 170v833q0 62 29.5 103t84.5 41q29 0 49.5 -18.5t20.5 -47.5q0 -43 -39 -59q-14 -7 -14 -27v-1130q0 -9 3.5 -15.5 t7.5 -8.5l3 -3q39 -16 39 -59q0 -29 -20.5 -47.5t-49.5 -18.5q-55 0 -94 53l-712 924l-119 168h-2l6 -168v-834q0 -62 -30 -102.5t-85 -40.5q-28 0 -48.5 18.5t-20.5 47.5zM465 1667q0 11 4.5 24t8.5 20.5t13 22.5t11 19q64 90 162 96q44 0 89 -25.5t85.5 -51t74.5 -25.5 q7 0 13.5 1.5t11 3.5t9.5 6t7.5 7t6.5 9.5t6 10t6 11t6 10.5q8 15 23 25t32 10q37 0 57.5 -30.5t2.5 -67.5q-65 -137 -172 -137q-35 0 -74 17t-67.5 37t-60.5 37t-54 17q-43 0 -72 -61q-22 -49 -64 -49q-27 0 -46 18t-19 45z" />
<glyph unicode="&#xd2;" horiz-adv-x="1699" d="M123 717q0 197 97.5 364.5t265 265t364.5 97.5t364.5 -97.5t265 -265t97.5 -364.5t-97.5 -364.5t-265 -265t-364.5 -97.5t-364.5 97.5t-265 265t-97.5 364.5zM256 717q0 -162 79.5 -299.5t216.5 -217t298 -79.5q122 0 232 47t190 127t127 190t47 232q0 161 -79.5 298 t-217 216.5t-299.5 79.5q-161 0 -298 -79.5t-216.5 -216.5t-79.5 -298zM666 1808q0 38 24.5 66.5t61.5 28.5q29 0 45 -13l237 -198q18 -15 21 -37q0 -18 -13 -32.5t-30 -14.5q-11 0 -23 6l-284 129q-39 17 -39 65z" />
<glyph unicode="&#xd3;" horiz-adv-x="1699" d="M123 717q0 197 97.5 364.5t265 265t364.5 97.5t364.5 -97.5t265 -265t97.5 -364.5t-97.5 -364.5t-265 -265t-364.5 -97.5t-364.5 97.5t-265 265t-97.5 364.5zM256 717q0 -162 79.5 -299.5t216.5 -217t298 -79.5q122 0 232 47t190 127t127 190t47 232q0 161 -79.5 298 t-217 216.5t-299.5 79.5q-161 0 -298 -79.5t-216.5 -216.5t-79.5 -298zM653 1653q3 22 21 37l237 198q18 15 41 15q37 0 63.5 -29.5t26.5 -67.5q0 -48 -38 -65l-285 -129q-12 -6 -23 -6q-17 0 -30 14.5t-13 32.5z" />
<glyph unicode="&#xd4;" horiz-adv-x="1699" d="M123 717q0 197 97.5 364.5t265 265t364.5 97.5t364.5 -97.5t265 -265t97.5 -364.5t-97.5 -364.5t-265 -265t-364.5 -97.5t-364.5 97.5t-265 265t-97.5 364.5zM256 717q0 -162 79.5 -299.5t216.5 -217t298 -79.5q122 0 232 47t190 127t127 190t47 232q0 161 -79.5 298 t-217 216.5t-299.5 79.5q-161 0 -298 -79.5t-216.5 -216.5t-79.5 -298zM596 1649q0 19 14 30l176 168q27 23 56 23q28 0 55 -23l176 -168q14 -11 14 -30q0 -20 -14 -36t-35 -16q-10 0 -28 9l-168 106l-168 -106q-18 -9 -29 -9q-21 0 -35 16t-14 36z" />
<glyph unicode="&#xd5;" horiz-adv-x="1699" d="M123 717q0 197 97.5 364.5t265 265t364.5 97.5t364.5 -97.5t265 -265t97.5 -364.5t-97.5 -364.5t-265 -265t-364.5 -97.5t-364.5 97.5t-265 265t-97.5 364.5zM256 717q0 -162 79.5 -299.5t216.5 -217t298 -79.5q122 0 232 47t190 127t127 190t47 232q0 161 -79.5 298 t-217 216.5t-299.5 79.5q-161 0 -298 -79.5t-216.5 -216.5t-79.5 -298zM532 1667q0 11 4.5 24t8.5 20.5t13 22.5t11 19q64 90 162 96q44 0 89 -25.5t86 -51t75 -25.5q7 0 13.5 1.5t11 3.5t9.5 6t7.5 7t6.5 9.5t6 10t6 11t6 10.5q8 15 23 25t32 10q37 0 57 -30.5t2 -67.5 q-65 -137 -172 -137q-44 0 -93.5 27t-92.5 54t-70 27q-42 0 -71 -61q-22 -49 -64 -49q-27 0 -46.5 18t-19.5 45z" />
<glyph unicode="&#xd6;" horiz-adv-x="1699" d="M123 717q0 197 97.5 364.5t265 265t364.5 97.5t364.5 -97.5t265 -265t97.5 -364.5t-97.5 -364.5t-265 -265t-364.5 -97.5t-364.5 97.5t-265 265t-97.5 364.5zM256 717q0 -162 79.5 -299.5t216.5 -217t298 -79.5q122 0 232 47t190 127t127 190t47 232q0 161 -79.5 298 t-217 216.5t-299.5 79.5q-161 0 -298 -79.5t-216.5 -216.5t-79.5 -298zM514 1716q0 47 34.5 79t82.5 32q47 0 82 -32.5t35 -78.5t-35 -78t-82 -32q-48 0 -82.5 31.5t-34.5 78.5zM975 1716q0 46 35 78.5t82 32.5q48 0 82 -32t34 -79t-34 -78.5t-82 -31.5q-47 0 -82 32t-35 78 z" />
<glyph unicode="&#xd7;" horiz-adv-x="956" d="M184 362q0 25 19 44l186 186l-184 184q-21 21 -21 45q0 26 20 45t46 19t43 -17l186 -186l185 184q19 19 45 19t44.5 -19t18.5 -45q0 -27 -16 -43l-187 -186l183 -182q20 -17 20 -50q0 -25 -19 -43t-44 -18q-24 0 -43 16l-187 189l-184 -185q-20 -20 -47 -20 q-25 0 -44.5 18.5t-19.5 44.5z" />
<glyph unicode="&#xd8;" horiz-adv-x="1699" d="M123 717q0 197 97.5 364.5t265 265t364.5 97.5q173 0 334 -82l43 59q21 31 53 31q40 0 57.5 -32.5t-4.5 -69.5l-39 -60q132 -102 207.5 -251.5t75.5 -321.5q0 -197 -97.5 -364.5t-265 -265t-364.5 -97.5q-192 0 -361 94l-47 -72q-19 -28 -53 -28q-28 0 -46.5 18.5 t-18.5 46.5q0 18 10 35l49 74q-122 101 -191 247t-69 312zM256 717q0 -131 53.5 -247.5t147.5 -201.5l653 981q-127 62 -260 62q-161 0 -298 -79.5t-216.5 -216.5t-79.5 -298zM563 195q135 -74 287 -74q122 0 232 47t190 127t127 190t47 232q0 139 -60 260.5t-165 204.5z " />
<glyph unicode="&#xd9;" horiz-adv-x="1484" d="M164 1368q0 29 20.5 47.5t48.5 18.5q55 0 85 -41t30 -103v-786q0 -146 111 -259.5t252 -113.5h61q93 1 178 54.5t136 140t51 178.5v786q0 62 29.5 103t84.5 41q29 0 49.5 -18.5t20.5 -47.5q0 -43 -39 -59q-14 -7 -14 -27v-778q0 -129 -69 -246t-184.5 -187.5 t-242.5 -70.5h-61q-127 0 -241.5 70t-183.5 186t-69 244v782q0 9 -3.5 15.5t-7.5 8.5l-3 3q-39 16 -39 59zM553 1808q0 38 24.5 66.5t61.5 28.5q29 0 45 -13l238 -198q17 -14 20 -37q0 -18 -13 -32.5t-30 -14.5q-10 0 -22 6l-285 129q-39 17 -39 65z" />
<glyph unicode="&#xda;" horiz-adv-x="1484" d="M164 1368q0 29 20.5 47.5t48.5 18.5q55 0 85 -41t30 -103v-786q0 -146 111 -259.5t252 -113.5h61q93 1 178 54.5t136 140t51 178.5v786q0 62 29.5 103t84.5 41q29 0 49.5 -18.5t20.5 -47.5q0 -43 -39 -59q-14 -7 -14 -27v-778q0 -129 -69 -246t-184.5 -187.5 t-242.5 -70.5h-61q-127 0 -241.5 70t-183.5 186t-69 244v782q0 9 -3.5 15.5t-7.5 8.5l-3 3q-39 16 -39 59zM569 1653q3 22 21 37l237 198q18 15 41 15q37 0 63.5 -29.5t26.5 -67.5q0 -48 -38 -65l-285 -129q-12 -6 -23 -6q-17 0 -30 14.5t-13 32.5z" />
<glyph unicode="&#xdb;" horiz-adv-x="1484" d="M164 1368q0 29 20.5 47.5t48.5 18.5q55 0 85 -41t30 -103v-786q0 -146 111 -259.5t252 -113.5h61q93 1 178 54.5t136 140t51 178.5v786q0 62 29.5 103t84.5 41q29 0 49.5 -18.5t20.5 -47.5q0 -43 -39 -59q-14 -7 -14 -27v-778q0 -129 -69 -246t-184.5 -187.5 t-242.5 -70.5h-61q-127 0 -241.5 70t-183.5 186t-69 244v782q0 9 -3.5 15.5t-7.5 8.5l-3 3q-39 16 -39 59zM502 1649q0 19 14 30l176 168q27 23 56 23q28 0 55 -23l176 -168q14 -11 14 -30q0 -20 -14 -36t-35 -16q-11 0 -29 9l-167 106l-168 -106q-18 -9 -29 -9 q-21 0 -35 16t-14 36z" />
<glyph unicode="&#xdc;" horiz-adv-x="1484" d="M164 1368q0 29 20.5 47.5t48.5 18.5q55 0 85 -41t30 -103v-786q0 -146 111 -259.5t252 -113.5h61q93 1 178 54.5t136 140t51 178.5v786q0 62 29.5 103t84.5 41q29 0 49.5 -18.5t20.5 -47.5q0 -43 -39 -59q-14 -7 -14 -27v-778q0 -129 -69 -246t-184.5 -187.5 t-242.5 -70.5h-61q-127 0 -241.5 70t-183.5 186t-69 244v782q0 9 -3.5 15.5t-7.5 8.5l-3 3q-39 16 -39 59zM395 1716q0 47 34.5 79t82.5 32q47 0 82 -32.5t35 -78.5t-35 -78t-82 -32q-48 0 -82.5 31.5t-34.5 78.5zM856 1716q0 46 35 78.5t82 32.5q48 0 82.5 -32t34.5 -79 t-34.5 -78.5t-82.5 -31.5q-47 0 -82 32t-35 78z" />
<glyph unicode="&#xdd;" horiz-adv-x="1343" d="M90 1364q0 38 25.5 54t62.5 16q70 0 109 -64l297 -491l86 -170h2l88 170l297 491q39 64 108 64q37 0 62.5 -16t25.5 -54q0 -28 -17 -46t-44 -18q-21 0 -35 -18l-420 -696v-518q0 -28 -19.5 -48t-45.5 -20t-46 20t-20 48v518l-420 696q-14 18 -34 18q-28 0 -45 18t-17 46z M477 1653q3 22 21 37l237 198q18 15 41 15q37 0 63.5 -29.5t26.5 -67.5q0 -48 -39 -65l-284 -129q-12 -6 -23 -6q-17 0 -30 14.5t-13 32.5z" />
<glyph unicode="&#xde;" horiz-adv-x="1267" d="M193 1368q0 29 20.5 47.5t48.5 18.5q54 0 85.5 -43.5t31.5 -100.5v-157h391q167 0 286.5 -119.5t119.5 -286.5q0 -162 -118 -281.5t-280 -119.5h-399v-183q0 -57 -30.5 -100t-84.5 -43q-28 0 -48.5 18.5t-20.5 47.5q0 44 38 59q15 7 15 27v1130q0 9 -4 15.5t-8 8.5l-3 3 q-40 16 -40 59zM379 455h391q112 0 192 79.5t80 192.5q0 114 -79 195.5t-193 81.5h-391v-549z" />
<glyph unicode="&#xdf;" horiz-adv-x="1298" d="M195 -106q0 34 34 57q19 13 19 33v1067q-6 160 114.5 271.5t288.5 111.5h51q172 0 290 -111t118 -274q0 -94 -42 -178.5t-122 -120.5q117 -28 178.5 -126.5t61.5 -226.5q0 -169 -119.5 -286.5t-288.5 -110.5h-180q-28 0 -47 19t-19 47q0 26 19 44.5t45 18.5h174 q121 -6 202 69.5t81 196.5q0 127 -85 199t-214 72q-28 0 -47 18t-19 45q0 25 18.5 44.5t43.5 19.5q96 0 161.5 79t65.5 177q0 117 -81 186.5t-200 69.5h-39q-74 0 -139.5 -30t-106 -90.5t-34.5 -137.5v-1082q0 -65 -41 -106q-34 -31 -76 -31q-27 0 -46 19.5t-19 46.5z" />
<glyph unicode="&#xe0;" horiz-adv-x="1107" d="M72 330q0 97 37.5 172.5t102.5 121.5t148 69.5t179 23.5q66 0 134 -18.5t118 -49.5v58q0 85 -13 120q-43 117 -268 117q-104 0 -236 -37q-16 -4 -28 -4q-28 0 -46 18t-18 46q0 44 45 61q123 47 275 47q92 0 167 -17t139.5 -64t92.5 -120q21 -55 21 -163v-559 q0 -9 3.5 -15.5t6.5 -8.5l4 -3q39 -16 39 -59q0 -29 -21 -52.5t-49 -23.5q-42 0 -70 30.5t-40 75.5q-4 16 -4 62q-41 -75 -137 -121.5t-191 -46.5q-104 0 -191.5 38t-143.5 117t-56 185zM203 332q0 -102 78.5 -157.5t185.5 -55.5q78 0 151 30.5t123 93t50 142.5v137 q-115 64 -259 64q-64 0 -121.5 -15t-105 -44.5t-75 -79.5t-27.5 -115zM342 1432q0 38 24.5 66t61.5 28q29 0 45 -13l238 -198q17 -14 20 -37q0 -18 -13 -32.5t-30 -14.5q-10 0 -22 6l-285 129q-39 17 -39 66z" />
<glyph unicode="&#xe1;" horiz-adv-x="1107" d="M72 330q0 97 37.5 172.5t102.5 121.5t148 69.5t179 23.5q66 0 134 -18.5t118 -49.5v58q0 85 -13 120q-43 117 -268 117q-104 0 -236 -37q-16 -4 -28 -4q-28 0 -46 18t-18 46q0 44 45 61q123 47 275 47q92 0 167 -17t139.5 -64t92.5 -120q21 -55 21 -163v-559 q0 -9 3.5 -15.5t6.5 -8.5l4 -3q39 -16 39 -59q0 -29 -21 -52.5t-49 -23.5q-42 0 -70 30.5t-40 75.5q-4 16 -4 62q-41 -75 -137 -121.5t-191 -46.5q-104 0 -191.5 38t-143.5 117t-56 185zM203 332q0 -102 78.5 -157.5t185.5 -55.5q78 0 151 30.5t123 93t50 142.5v137 q-115 64 -259 64q-64 0 -121.5 -15t-105 -44.5t-75 -79.5t-27.5 -115zM315 1276q3 22 21 37l237 198q18 15 41 15q37 0 64 -29t27 -67q0 -49 -39 -66l-285 -129q-12 -6 -23 -6q-17 0 -30 14.5t-13 32.5z" />
<glyph unicode="&#xe2;" horiz-adv-x="1107" d="M72 330q0 97 37.5 172.5t102.5 121.5t148 69.5t179 23.5q66 0 134 -18.5t118 -49.5v58q0 85 -13 120q-43 117 -268 117q-104 0 -236 -37q-16 -4 -28 -4q-28 0 -46 18t-18 46q0 44 45 61q123 47 275 47q92 0 167 -17t139.5 -64t92.5 -120q21 -55 21 -163v-559 q0 -9 3.5 -15.5t6.5 -8.5l4 -3q39 -16 39 -59q0 -29 -21 -52.5t-49 -23.5q-42 0 -70 30.5t-40 75.5q-4 16 -4 62q-41 -75 -137 -121.5t-191 -46.5q-104 0 -191.5 38t-143.5 117t-56 185zM203 332q0 -102 78.5 -157.5t185.5 -55.5q78 0 151 30.5t123 93t50 142.5v137 q-115 64 -259 64q-64 0 -121.5 -15t-105 -44.5t-75 -79.5t-27.5 -115zM293 1280q0 20 14 31l176 168q26 22 56 22q29 0 55 -22l176 -168q14 -11 14 -31t-14 -35.5t-35 -15.5q-12 0 -28 8l-168 106l-168 -106q-16 -8 -29 -8q-21 0 -35 15.5t-14 35.5z" />
<glyph unicode="&#xe3;" horiz-adv-x="1107" d="M72 330q0 97 37.5 172.5t102.5 121.5t148 69.5t179 23.5q66 0 134 -18.5t118 -49.5v58q0 85 -13 120q-43 117 -268 117q-104 0 -236 -37q-16 -4 -28 -4q-28 0 -46 18t-18 46q0 44 45 61q123 47 275 47q92 0 167 -17t139.5 -64t92.5 -120q21 -55 21 -163v-559 q0 -9 3.5 -15.5t6.5 -8.5l4 -3q39 -16 39 -59q0 -29 -21 -52.5t-49 -23.5q-42 0 -70 30.5t-40 75.5q-4 16 -4 62q-41 -75 -137 -121.5t-191 -46.5q-104 0 -191.5 38t-143.5 117t-56 185zM203 332q0 -102 78.5 -157.5t185.5 -55.5q78 0 151 30.5t123 93t50 142.5v137 q-115 64 -259 64q-64 0 -121.5 -15t-105 -44.5t-75 -79.5t-27.5 -115zM227 1290q0 11 4.5 24t8.5 20.5t13 22.5t11 19q65 91 162 97q44 0 89 -25.5t86 -51.5t75 -26q9 0 17 3t13 6t11 10.5t8.5 11.5t8 15t7.5 14q17 34 56 34q37 0 57 -30.5t2 -67.5q-65 -137 -172 -137 q-35 0 -74 17t-67.5 37t-60.5 37t-54 17q-43 0 -72 -61q-22 -49 -63 -49q-27 0 -46.5 18t-19.5 45z" />
<glyph unicode="&#xe4;" horiz-adv-x="1107" d="M72 330q0 97 37.5 172.5t102.5 121.5t148 69.5t179 23.5q66 0 134 -18.5t118 -49.5v58q0 85 -13 120q-43 117 -268 117q-104 0 -236 -37q-16 -4 -28 -4q-28 0 -46 18t-18 46q0 44 45 61q123 47 275 47q92 0 167 -17t139.5 -64t92.5 -120q21 -55 21 -163v-559 q0 -9 3.5 -15.5t6.5 -8.5l4 -3q39 -16 39 -59q0 -29 -21 -52.5t-49 -23.5q-42 0 -70 30.5t-40 75.5q-4 16 -4 62q-41 -75 -137 -121.5t-191 -46.5q-104 0 -191.5 38t-143.5 117t-56 185zM160 1339q0 47 34 79t82 32q47 0 82 -32.5t35 -78.5t-35 -78t-82 -32q-48 0 -82 31.5 t-34 78.5zM203 332q0 -102 78.5 -157.5t185.5 -55.5q78 0 151 30.5t123 93t50 142.5v137q-115 64 -259 64q-64 0 -121.5 -15t-105 -44.5t-75 -79.5t-27.5 -115zM621 1339q0 46 34.5 78.5t81.5 32.5q48 0 82.5 -32t34.5 -79t-34.5 -78.5t-82.5 -31.5q-47 0 -81.5 32t-34.5 78 z" />
<glyph unicode="&#xe5;" horiz-adv-x="1107" d="M72 330q0 97 37.5 172.5t102.5 121.5t148 69.5t179 23.5q66 0 134 -18.5t118 -49.5v58q0 85 -13 120q-43 117 -268 117q-104 0 -236 -37q-16 -4 -28 -4q-28 0 -46 18t-18 46q0 44 45 61q123 47 275 47q92 0 167 -17t139.5 -64t92.5 -120q21 -55 21 -163v-559 q0 -9 3.5 -15.5t6.5 -8.5l4 -3q39 -16 39 -59q0 -29 -21 -52.5t-49 -23.5q-42 0 -70 30.5t-40 75.5q-4 16 -4 62q-41 -75 -137 -121.5t-191 -46.5q-104 0 -191.5 38t-143.5 117t-56 185zM203 332q0 -102 78.5 -157.5t185.5 -55.5q78 0 151 30.5t123 93t50 142.5v137 q-115 64 -259 64q-64 0 -121.5 -15t-105 -44.5t-75 -79.5t-27.5 -115zM358 1325q0 69 51.5 118.5t120.5 49.5q71 0 123 -49.5t52 -118.5t-52 -118.5t-123 -49.5q-68 0 -120 49t-52 119zM420 1325q0 -44 33 -73t77 -29q46 0 79.5 29t33.5 73q0 45 -33.5 76t-79.5 31 q-44 0 -77 -31t-33 -76z" />
<glyph unicode="&#xe6;" horiz-adv-x="1890" d="M72 330q0 97 37.5 172.5t102.5 121.5t148 69.5t179 23.5q132 0 252 -62v52q0 85 -13 120q-43 117 -270 117q-104 0 -236 -37q-16 -4 -28 -4q-28 0 -45 18t-17 46q0 44 45 61q123 47 275 47q92 0 167 -17t139.5 -64t92.5 -120q0 -1 1 -4t1 -4q69 96 169 152.5t218 56.5 q143 0 259.5 -77.5t179.5 -201.5t63 -264q0 -28 -21.5 -47.5t-50.5 -19.5h-794q21 -140 122.5 -241t241.5 -101q204 0 312 108q21 21 51 21q25 0 44 -18.5t19 -45.5t-18 -45q-141 -153 -408 -153q-132 0 -238.5 63t-172.5 172q-38 -67 -85.5 -114t-87.5 -70.5t-91.5 -36 t-80 -14.5t-71.5 -2q-161 0 -276 92t-115 250zM203 332q0 -102 78.5 -157.5t185.5 -55.5q77 0 151 34t123.5 100t49.5 146v119q-139 68 -259 68q-64 0 -121.5 -15t-105 -44.5t-75 -79.5t-27.5 -115zM926 596h733q-19 141 -123.5 243.5t-245.5 102.5q-138 0 -243.5 -103 t-120.5 -243z" />
<glyph unicode="&#xe7;" horiz-adv-x="1116" d="M102 530q0 148 73.5 274t199.5 199.5t274 73.5q188 0 330 -112q23 -18 30.5 -41t-1.5 -41.5t-25 -31.5t-40 -11.5t-46 18.5q-112 86 -248 86q-171 0 -294.5 -121t-123.5 -293q0 -167 123.5 -287t294.5 -120q140 0 248 86q21 17 44.5 18t39.5 -12t25 -31t2.5 -41 t-29.5 -41q-139 -112 -330 -112h-22l-6 -43q87 0 141.5 -48t54.5 -114q0 -89 -69.5 -135.5t-163.5 -46.5q-114 0 -181 67q-16 19 -16 43q0 27 16.5 44.5t45.5 17.5q18 0 38 -17q43 -30 88 -30q41 0 70 17.5t29 51.5q0 33 -31 49.5t-68 20.5q-25 3 -42 19.5t-17 39.5 q0 10 16 76q-186 40 -308 188t-122 340z" />
<glyph unicode="&#xe8;" horiz-adv-x="1204" d="M102 535q0 140 62.5 263t178.5 200t259 77q144 0 261 -76.5t180 -199.5t63 -264q0 -28 -21.5 -48t-48.5 -20h-800q21 -141 123.5 -243.5t242.5 -102.5q203 0 313 110q21 21 52 21q25 0 45 -18t20 -44q0 -29 -18 -47q-144 -153 -412 -153q-143 0 -259 75.5t-178.5 200 t-62.5 269.5zM236 598h737q-19 141 -124.5 243.5t-246.5 102.5q-138 0 -244.5 -103.5t-121.5 -242.5zM426 1432q0 38 24.5 66t61.5 28q29 0 45 -13l238 -198q17 -14 20 -37q0 -18 -13 -32.5t-30 -14.5q-10 0 -22 6l-285 129q-39 17 -39 66z" />
<glyph unicode="&#xe9;" horiz-adv-x="1204" d="M102 535q0 140 62.5 263t178.5 200t259 77q144 0 261 -76.5t180 -199.5t63 -264q0 -28 -21.5 -48t-48.5 -20h-800q21 -141 123.5 -243.5t242.5 -102.5q203 0 313 110q21 21 52 21q25 0 45 -18t20 -44q0 -29 -18 -47q-144 -153 -412 -153q-143 0 -259 75.5t-178.5 200 t-62.5 269.5zM236 598h737q-19 141 -124.5 243.5t-246.5 102.5q-138 0 -244.5 -103.5t-121.5 -242.5zM403 1276q3 22 21 37l238 198q18 15 40 15q37 0 64 -29t27 -67q0 -49 -39 -66l-285 -129q-12 -6 -23 -6q-17 0 -30 14.5t-13 32.5z" />
<glyph unicode="&#xea;" horiz-adv-x="1204" d="M102 535q0 140 62.5 263t178.5 200t259 77q144 0 261 -76.5t180 -199.5t63 -264q0 -28 -21.5 -48t-48.5 -20h-800q21 -141 123.5 -243.5t242.5 -102.5q203 0 313 110q21 21 52 21q25 0 45 -18t20 -44q0 -29 -18 -47q-144 -153 -412 -153q-143 0 -259 75.5t-178.5 200 t-62.5 269.5zM236 598h737q-19 141 -124.5 243.5t-246.5 102.5q-138 0 -244.5 -103.5t-121.5 -242.5zM350 1280q0 19 15 31l176 168q26 22 55 22t55 -22l176 -168q15 -12 15 -31q0 -20 -14 -35.5t-35 -15.5q-13 0 -29 8l-168 106l-168 -106q-16 -8 -29 -8q-21 0 -35 15.5 t-14 35.5z" />
<glyph unicode="&#xeb;" horiz-adv-x="1204" d="M102 535q0 140 62.5 263t178.5 200t259 77q144 0 261 -76.5t180 -199.5t63 -264q0 -28 -21.5 -48t-48.5 -20h-800q21 -141 123.5 -243.5t242.5 -102.5q203 0 313 110q21 21 52 21q25 0 45 -18t20 -44q0 -29 -18 -47q-144 -153 -412 -153q-143 0 -259 75.5t-178.5 200 t-62.5 269.5zM236 598h737q-19 141 -124.5 243.5t-246.5 102.5q-138 0 -244.5 -103.5t-121.5 -242.5zM250 1339q0 47 34.5 79t82.5 32q47 0 81.5 -32.5t34.5 -78.5t-34.5 -78t-81.5 -32q-48 0 -82.5 31.5t-34.5 78.5zM711 1339q0 46 34.5 78.5t81.5 32.5q48 0 82.5 -32 t34.5 -79t-34.5 -78.5t-82.5 -31.5q-47 0 -81.5 32t-34.5 78z" />
<glyph unicode="&#xec;" horiz-adv-x="493" d="M68 1432q0 38 24.5 66t61.5 28q29 0 45 -13l237 -198q18 -15 21 -37q0 -18 -13 -32.5t-30 -14.5q-11 0 -23 6l-285 129q-38 17 -38 66zM127 999q0 29 20.5 47.5t49.5 18.5q55 0 84.5 -40.5t29.5 -102.5v-770q0 -9 3.5 -15.5t7.5 -8.5l4 -3q39 -16 39 -59 q0 -29 -20.5 -47.5t-49.5 -18.5q-55 0 -85 40.5t-30 102.5v770q0 9 -3.5 15.5t-6.5 9.5l-4 2q-39 16 -39 59z" />
<glyph unicode="&#xed;" horiz-adv-x="493" d="M27 1276q3 23 20 37l238 198q18 15 41 15q37 0 63.5 -29t26.5 -67q0 -49 -39 -66l-285 -129q-12 -6 -22 -6q-17 0 -30 14.5t-13 32.5zM127 999q0 29 20.5 47.5t49.5 18.5q55 0 84.5 -40.5t29.5 -102.5v-770q0 -9 3.5 -15.5t7.5 -8.5l4 -3q39 -16 39 -59 q0 -29 -20.5 -47.5t-49.5 -18.5q-55 0 -85 40.5t-30 102.5v770q0 9 -3.5 15.5t-6.5 9.5l-4 2q-39 16 -39 59z" />
<glyph unicode="&#xee;" horiz-adv-x="493" d="M10 1280q0 19 15 31l176 168q26 22 55 22t55 -22l176 -168q15 -12 15 -31q0 -20 -14 -35.5t-35 -15.5q-13 0 -29 8l-168 106l-168 -106q-16 -8 -29 -8q-21 0 -35 15.5t-14 35.5zM123 999q0 29 20.5 47.5t49.5 18.5q55 0 84.5 -40.5t29.5 -102.5v-770q0 -9 3.5 -15.5 t7.5 -8.5l4 -3q38 -15 38 -59q0 -29 -20.5 -47.5t-48.5 -18.5q-55 0 -85 40.5t-30 102.5v770q0 9 -3.5 15.5t-6.5 9.5l-4 2q-39 16 -39 59z" />
<glyph unicode="&#xef;" horiz-adv-x="493" d="M-90 1339q0 47 34.5 79t82.5 32q47 0 81.5 -32.5t34.5 -78.5t-34.5 -78t-81.5 -32q-48 0 -82.5 31.5t-34.5 78.5zM121 999q0 29 20.5 47.5t48.5 18.5q55 0 85 -40.5t30 -102.5v-770q0 -9 3.5 -15.5t7.5 -8.5l3 -3q39 -16 39 -59q0 -29 -20.5 -47.5t-48.5 -18.5 q-55 0 -85 40.5t-30 102.5v770q0 9 -3.5 15.5t-6.5 9.5l-4 2q-39 16 -39 59zM309 1339q0 46 35 78.5t82 32.5q48 0 82.5 -32t34.5 -79t-34.5 -78.5t-82.5 -31.5q-47 0 -82 32t-35 78z" />
<glyph unicode="&#xf0;" horiz-adv-x="1275" d="M98 539q0 109 42.5 208.5t114.5 171.5t171.5 115t208.5 43q153 0 285 -82q-86 140 -252 238l-133 -80q-18 -11 -38 -7.5t-30 23.5q-11 17 -6 37.5t24 30.5l78 47q-79 30 -145 41q-29 5 -46.5 26.5t-13.5 49.5q4 29 26 44t50 9q124 -19 264 -90l152 92q17 10 37.5 5 t30.5 -23q10 -17 4.5 -37t-23.5 -31l-106 -61q177 -118 279 -324.5t102 -431.5q0 -111 -41 -212.5t-111.5 -176.5t-171.5 -119.5t-215 -44.5q-146 0 -269.5 72.5t-195.5 196.5t-72 270zM227 539q0 -168 120 -288t288 -120q170 0 289.5 119.5t119.5 288.5q0 168 -119.5 286.5 t-289.5 118.5q-168 0 -288 -119t-120 -286z" />
<glyph unicode="&#xf1;" horiz-adv-x="1269" d="M133 66q0 43 39 59q14 7 14 27v757q0 9 -3.5 15t-6.5 8l-4 2q-39 16 -39 61q0 29 20 49.5t48 20.5q54 0 85 -35t31 -98v-37q5 9 17 25t40 42.5t62 48t85.5 38t107.5 16.5q223 0 338.5 -125.5t115.5 -357.5v-430q0 -9 3.5 -15.5t7.5 -8.5l4 -3q39 -16 39 -59 q0 -29 -20.5 -47.5t-49.5 -18.5q-55 0 -85 40.5t-30 102.5v455q0 76 -17.5 135.5t-54.5 105.5t-100.5 70.5t-150.5 24.5q-133 0 -222.5 -85.5t-89.5 -219.5v-486q0 -62 -29.5 -102.5t-84.5 -40.5q-29 0 -49.5 18.5t-20.5 47.5zM311 1290q0 11 4.5 24t8.5 20.5t13 22.5t11 19 q65 91 162 97q44 0 89 -25.5t86 -51.5t75 -26q9 0 17 3t13 6t11 10.5t8.5 11.5t8 15t7.5 14q17 34 56 34q37 0 57 -30.5t2 -67.5q-65 -137 -172 -137q-35 0 -74 17t-67.5 37t-60.5 37t-54 17q-43 0 -72 -61q-22 -49 -63 -49q-27 0 -46.5 18t-19.5 45z" />
<glyph unicode="&#xf2;" horiz-adv-x="1292" d="M102 535q0 146 73 270.5t198 197t272 72.5q148 0 273.5 -72.5t198.5 -197t73 -270.5q0 -148 -73 -273.5t-198.5 -198.5t-273.5 -73q-147 0 -272 73t-198 198.5t-73 273.5zM231 535q0 -171 122.5 -292.5t291.5 -121.5q172 0 294 121t122 293q0 169 -122 289t-294 120 q-169 0 -291.5 -120.5t-122.5 -288.5zM451 1432q0 38 24.5 66t61.5 28q29 0 45 -13l237 -198q18 -15 21 -37q0 -18 -13 -32.5t-30 -14.5q-11 0 -23 6l-285 129q-38 17 -38 66z" />
<glyph unicode="&#xf3;" horiz-adv-x="1292" d="M102 535q0 146 73 270.5t198 197t272 72.5q148 0 273.5 -72.5t198.5 -197t73 -270.5q0 -148 -73 -273.5t-198.5 -198.5t-273.5 -73q-147 0 -272 73t-198 198.5t-73 273.5zM231 535q0 -171 122.5 -292.5t291.5 -121.5q172 0 294 121t122 293q0 169 -122 289t-294 120 q-169 0 -291.5 -120.5t-122.5 -288.5zM444 1276q3 22 21 37l237 198q18 15 41 15q37 0 64 -29t27 -67q0 -49 -39 -66l-285 -129q-12 -6 -23 -6q-17 0 -30 14.5t-13 32.5z" />
<glyph unicode="&#xf4;" horiz-adv-x="1292" d="M102 535q0 146 73 270.5t198 197t272 72.5q148 0 273.5 -72.5t198.5 -197t73 -270.5q0 -148 -73 -273.5t-198.5 -198.5t-273.5 -73q-147 0 -272 73t-198 198.5t-73 273.5zM231 535q0 -171 122.5 -292.5t291.5 -121.5q172 0 294 121t122 293q0 169 -122 289t-294 120 q-169 0 -291.5 -120.5t-122.5 -288.5zM399 1280q0 19 15 31l176 168q26 22 55 22t55 -22l177 -168q14 -11 14 -31t-14 -35.5t-35 -15.5q-13 0 -29 8l-168 106l-168 -106q-16 -8 -28 -8q-21 0 -35.5 15.5t-14.5 35.5z" />
<glyph unicode="&#xf5;" horiz-adv-x="1292" d="M102 535q0 146 73 270.5t198 197t272 72.5q148 0 273.5 -72.5t198.5 -197t73 -270.5q0 -148 -73 -273.5t-198.5 -198.5t-273.5 -73q-147 0 -272 73t-198 198.5t-73 273.5zM231 535q0 -171 122.5 -292.5t291.5 -121.5q172 0 294 121t122 293q0 169 -122 289t-294 120 q-169 0 -291.5 -120.5t-122.5 -288.5zM328 1290q0 11 4.5 24t8.5 20.5t13 22.5t11 19q65 92 161 97q44 0 89 -25.5t86 -51.5t75 -26q9 0 17.5 3t13 5.5t11 11t8.5 11.5t8.5 15t7.5 14q17 34 55 34q37 0 57 -30.5t2 -67.5q-65 -137 -172 -137q-35 0 -74 17t-67.5 37t-60.5 37 t-54 17q-42 0 -71 -61q-22 -49 -64 -49q-27 0 -46 18t-19 45z" />
<glyph unicode="&#xf6;" horiz-adv-x="1292" d="M102 535q0 146 73 270.5t198 197t272 72.5q148 0 273.5 -72.5t198.5 -197t73 -270.5q0 -148 -73 -273.5t-198.5 -198.5t-273.5 -73q-147 0 -272 73t-198 198.5t-73 273.5zM231 535q0 -171 122.5 -292.5t291.5 -121.5q172 0 294 121t122 293q0 169 -122 289t-294 120 q-169 0 -291.5 -120.5t-122.5 -288.5zM299 1339q0 47 34.5 79t82.5 32q47 0 81.5 -32.5t34.5 -78.5t-34.5 -78t-81.5 -32q-48 0 -82.5 31.5t-34.5 78.5zM760 1339q0 46 35 78.5t82 32.5q48 0 82 -32t34 -79t-34 -78.5t-82 -31.5q-47 0 -82 32t-35 78z" />
<glyph unicode="&#xf7;" horiz-adv-x="1032" d="M111 592q0 27 17 46t44 19h684q26 0 46 -18t20 -45q0 -26 -18 -45t-44 -19h-684q-27 0 -46 18t-19 44zM393 283q0 51 36 85.5t87 34.5t86 -35.5t35 -86.5t-35 -86t-86 -35t-87 36t-36 87zM393 905q0 51 36 87t87 36t86 -36t35 -87t-35 -87t-86 -36t-87 36t-36 87z" />
<glyph unicode="&#xf8;" horiz-adv-x="1288" d="M102 535q0 109 43 208.5t115.5 172.5t173 116t209.5 43q128 0 242 -57l65 100q13 23 41 29t51 -8q23 -15 28.5 -42.5t-9.5 -49.5l-68 -103q91 -76 142 -182.5t51 -226.5q0 -147 -73 -272.5t-198 -199t-272 -73.5q-124 0 -233 53l-82 -125q-15 -23 -42.5 -29.5t-52.5 7.5 q-23 15 -27 44t11 50l82 127q-92 76 -144.5 185.5t-52.5 232.5zM231 535q0 -89 37 -169.5t103 -138.5l440 680q-75 37 -168 37q-168 0 -290 -121t-122 -288zM481 156q78 -35 162 -35q170 0 292 122t122 292q0 87 -35.5 165t-99.5 134z" />
<glyph unicode="&#xf9;" horiz-adv-x="1277" d="M133 999q0 29 20.5 47.5t49.5 18.5q55 0 84.5 -40.5t29.5 -102.5v-455q0 -173 82 -254.5t256 -81.5q132 0 219 78.5t87 204.5v508q0 62 29.5 102.5t84.5 40.5q29 0 49.5 -18.5t20.5 -47.5q0 -43 -39 -59q-14 -7 -14 -27v-761q0 -9 3.5 -15.5t6.5 -8.5l4 -3q39 -16 39 -59 q0 -29 -20.5 -47.5t-49.5 -18.5q-63 0 -91 49t-23 115q-41 -75 -136 -119.5t-174 -44.5q-229 0 -347 119t-118 348v446q0 9 -3.5 15.5t-6.5 9.5l-4 2q-39 16 -39 59zM459 1432q0 38 24.5 66t61.5 28q29 0 45 -13l237 -198q18 -15 21 -37q0 -18 -13 -32.5t-30 -14.5 q-11 0 -23 6l-284 129q-39 17 -39 66z" />
<glyph unicode="&#xfa;" horiz-adv-x="1277" d="M133 999q0 29 20.5 47.5t49.5 18.5q55 0 84.5 -40.5t29.5 -102.5v-455q0 -173 82 -254.5t256 -81.5q132 0 219 78.5t87 204.5v508q0 62 29.5 102.5t84.5 40.5q29 0 49.5 -18.5t20.5 -47.5q0 -43 -39 -59q-14 -7 -14 -27v-761q0 -9 3.5 -15.5t6.5 -8.5l4 -3q39 -16 39 -59 q0 -29 -20.5 -47.5t-49.5 -18.5q-63 0 -91 49t-23 115q-41 -75 -136 -119.5t-174 -44.5q-229 0 -347 119t-118 348v446q0 9 -3.5 15.5t-6.5 9.5l-4 2q-39 16 -39 59zM492 1276q3 23 20 37l238 198q18 15 41 15q37 0 63.5 -29t26.5 -67q0 -49 -39 -66l-285 -129 q-12 -6 -22 -6q-17 0 -30 14.5t-13 32.5z" />
<glyph unicode="&#xfb;" horiz-adv-x="1277" d="M133 999q0 29 20.5 47.5t49.5 18.5q55 0 84.5 -40.5t29.5 -102.5v-455q0 -173 82 -254.5t256 -81.5q132 0 219 78.5t87 204.5v508q0 62 29.5 102.5t84.5 40.5q29 0 49.5 -18.5t20.5 -47.5q0 -43 -39 -59q-14 -7 -14 -27v-761q0 -9 3.5 -15.5t6.5 -8.5l4 -3q39 -16 39 -59 q0 -29 -20.5 -47.5t-49.5 -18.5q-63 0 -91 49t-23 115q-41 -75 -136 -119.5t-174 -44.5q-229 0 -347 119t-118 348v446q0 9 -3.5 15.5t-6.5 9.5l-4 2q-39 16 -39 59zM422 1280q0 20 14 31l176 168q26 22 56 22q29 0 55 -22l176 -168q14 -11 14 -31t-14 -35.5t-35 -15.5 q-12 0 -28 8l-168 106l-168 -106q-16 -8 -29 -8q-21 0 -35 15.5t-14 35.5z" />
<glyph unicode="&#xfc;" horiz-adv-x="1277" d="M133 999q0 29 20.5 47.5t49.5 18.5q55 0 84.5 -40.5t29.5 -102.5v-455q0 -173 82 -254.5t256 -81.5q132 0 219 78.5t87 204.5v508q0 62 29.5 102.5t84.5 40.5q29 0 49.5 -18.5t20.5 -47.5q0 -43 -39 -59q-14 -7 -14 -27v-761q0 -9 3.5 -15.5t6.5 -8.5l4 -3q39 -16 39 -59 q0 -29 -20.5 -47.5t-49.5 -18.5q-63 0 -91 49t-23 115q-41 -75 -136 -119.5t-174 -44.5q-229 0 -347 119t-118 348v446q0 9 -3.5 15.5t-6.5 9.5l-4 2q-39 16 -39 59zM291 1339q0 47 34.5 79t82.5 32q47 0 81.5 -32.5t34.5 -78.5t-34.5 -78t-81.5 -32q-48 0 -82.5 31.5 t-34.5 78.5zM752 1339q0 46 34.5 78.5t81.5 32.5q48 0 82.5 -32t34.5 -79t-34.5 -78.5t-82.5 -31.5q-47 0 -81.5 32t-34.5 78z" />
<glyph unicode="&#xfd;" horiz-adv-x="1189" d="M92 995q0 34 23 52t57 18q40 0 70.5 -24t44.5 -62l252 -655l51 -179h2l53 177l258 657q15 39 46 62.5t73 23.5q32 0 54 -18.5t22 -49.5q0 -25 -13.5 -43t-37.5 -22q-18 -3 -29 -25l-359 -915q-30 -75 -46.5 -112.5t-55.5 -95.5t-82 -89q-60 -43 -137 -43q-64 0 -158 33 q-19 7 -31 26t-12 39q0 27 20.5 46.5t47.5 19.5q20 0 63 -14.5t66 -14.5q40 0 63 18q7 6 19 17.5t41.5 55t50.5 95.5q2 4 12 29l-348 903q-6 22 -29 25q-23 4 -37 22t-14 43zM412 1276q3 23 20 37l238 198q18 15 41 15q37 0 63.5 -29t26.5 -67q0 -49 -39 -66l-285 -129 q-12 -6 -22 -6q-17 0 -30 14.5t-13 32.5z" />
<glyph unicode="&#xfe;" horiz-adv-x="1304" d="M170 -281q0 44 39 60q14 6 14 26v1477q0 9 -3.5 15.5t-7.5 8.5l-3 3q-39 16 -39 59q0 29 20.5 47.5t49.5 18.5q55 0 84.5 -41t29.5 -103v-422q121 197 361 197q140 0 253 -75.5t173.5 -199.5t60.5 -270q0 -139 -62 -258t-174.5 -190.5t-250.5 -71.5q-107 0 -200.5 47.5 t-160.5 142.5v-393q0 -62 -29.5 -102.5t-84.5 -40.5q-29 0 -49.5 18.5t-20.5 46.5zM354 518q0 -162 99.5 -274.5t259.5 -112.5q159 0 258.5 114t99.5 275q0 103 -42.5 197t-126 155.5t-189.5 61.5q-65 0 -123 -24t-100 -65t-73.5 -94t-47 -113t-15.5 -120z" />
<glyph unicode="&#xff;" horiz-adv-x="1189" d="M92 995q0 34 23 52t57 18q40 0 70.5 -24t44.5 -62l252 -655l51 -179h2l53 177l258 657q15 39 46 62.5t73 23.5q32 0 54 -18.5t22 -49.5q0 -25 -13.5 -43t-37.5 -22q-18 -3 -29 -25l-359 -915q-30 -75 -46.5 -112.5t-55.5 -95.5t-82 -89q-60 -43 -137 -43q-64 0 -158 33 q-19 7 -31 26t-12 39q0 27 20.5 46.5t47.5 19.5q20 0 63 -14.5t66 -14.5q40 0 63 18q7 6 19 17.5t41.5 55t50.5 95.5q2 4 12 29l-348 903q-6 22 -29 25q-23 4 -37 22t-14 43zM248 1339q0 47 34.5 79t82.5 32q47 0 81.5 -32.5t34.5 -78.5t-34.5 -78t-81.5 -32 q-48 0 -82.5 31.5t-34.5 78.5zM709 1339q0 46 34.5 78.5t81.5 32.5q48 0 82.5 -32t34.5 -79t-34.5 -78.5t-82.5 -31.5q-47 0 -81.5 32t-34.5 78z" />
<glyph unicode="&#x152;" horiz-adv-x="2078" d="M146 532.5q-49 184.5 0 369t186 321.5q104 102 237 156.5t271 54.5h1034q27 0 46 -19.5t19 -46.5q0 -28 -18.5 -46.5t-46.5 -18.5h-664q11 -9 11 -39v-500h532q28 0 47.5 -19t18.5 -45q0 -28 -19 -46.5t-47 -18.5h-532v-465q0 -30 -11 -39h703q28 0 46.5 -17.5 t18.5 -45.5t-19 -48t-46 -20h-1077q-137 0 -268.5 54t-235.5 157q-137 137 -186 321.5zM254 717q0 -159 78 -294t212 -214t292 -80h229q22 0 22 35v1106q0 35 -20 35h-229q-159 0 -293.5 -79t-212.5 -214t-78 -295z" />
<glyph unicode="&#x153;" horiz-adv-x="2162" d="M102 535q0 146 73 271t198 198t272 73q151 0 279 -78t198 -206q64 128 179.5 206t259.5 78q108 0 203 -45.5t160 -120.5t102.5 -173t37.5 -203q0 -28 -21 -48t-48 -20h-801q21 -140 124 -242t243 -102q205 0 313 108q21 21 51 21q25 0 45.5 -18t20.5 -44q0 -28 -19 -47 q-144 -153 -411 -153q-146 0 -261 76t-178 204q-72 -128 -199 -205t-278 -77q-147 0 -272 73.5t-198 199.5t-73 274zM231 535q0 -171 122.5 -293.5t291.5 -122.5q170 0 293 119.5t123 296.5q0 173 -123.5 292t-292.5 119t-291.5 -121.5t-122.5 -289.5zM1194 600h737 q-19 141 -124 242.5t-246 101.5q-139 0 -245.5 -102.5t-121.5 -241.5z" />
<glyph unicode="&#x178;" horiz-adv-x="1343" d="M90 1364q0 38 25.5 54t62.5 16q70 0 109 -64l297 -491l86 -170h2l88 170l297 491q39 64 108 64q37 0 62.5 -16t25.5 -54q0 -28 -17 -46t-44 -18q-21 0 -35 -18l-420 -696v-518q0 -28 -19.5 -48t-45.5 -20t-46 20t-20 48v518l-420 696q-14 18 -34 18q-28 0 -45 18t-17 46z M344 1716q0 47 34.5 79t82.5 32q47 0 82 -32.5t35 -78.5t-35 -78t-82 -32q-48 0 -82.5 31.5t-34.5 78.5zM805 1716q0 46 35 78.5t82 32.5q48 0 82 -32t34 -79t-34 -78.5t-82 -31.5q-47 0 -82 32t-35 78z" />
<glyph unicode="&#x2c6;" horiz-adv-x="1028" d="M268 1280q0 19 15 31l176 168q26 22 55 22t55 -22l176 -168q15 -12 15 -31q0 -20 -14 -35.5t-35 -15.5q-13 0 -29 8l-168 106l-168 -106q-16 -8 -29 -8q-21 0 -35 15.5t-14 35.5z" />
<glyph unicode="&#x2dc;" horiz-adv-x="1026" d="M195 1290q0 11 4.5 24t8 20t13 23t10.5 19q65 91 162 97q44 0 89 -25.5t86 -51.5t75 -26q9 0 17.5 3t13 5.5t11 11t8.5 11.5t8.5 15t7.5 14q17 34 55 34q37 0 57 -30.5t2 -67.5q-65 -137 -172 -137q-44 0 -93.5 27t-92.5 54t-70 27q-42 0 -71 -61q-22 -49 -64 -49 q-27 0 -46 18t-19 45z" />
<glyph unicode="&#x2000;" horiz-adv-x="951" />
<glyph unicode="&#x2001;" horiz-adv-x="1903" />
<glyph unicode="&#x2002;" horiz-adv-x="951" />
<glyph unicode="&#x2003;" horiz-adv-x="1903" />
<glyph unicode="&#x2004;" horiz-adv-x="634" />
<glyph unicode="&#x2005;" horiz-adv-x="475" />
<glyph unicode="&#x2006;" horiz-adv-x="317" />
<glyph unicode="&#x2007;" horiz-adv-x="317" />
<glyph unicode="&#x2008;" horiz-adv-x="237" />
<glyph unicode="&#x2009;" horiz-adv-x="380" />
<glyph unicode="&#x200a;" horiz-adv-x="105" />
<glyph unicode="&#x2010;" horiz-adv-x="950" d="M115 592q0 27 17 46t44 19h594q26 0 46 -18t20 -45q0 -26 -18 -45t-44 -19h-594q-27 0 -46 18t-19 44z" />
<glyph unicode="&#x2011;" horiz-adv-x="950" d="M115 592q0 27 17 46t44 19h594q26 0 46 -18t20 -45q0 -26 -18 -45t-44 -19h-594q-27 0 -46 18t-19 44z" />
<glyph unicode="&#x2012;" horiz-adv-x="950" d="M115 592q0 27 17 46t44 19h594q26 0 46 -18t20 -45q0 -26 -18 -45t-44 -19h-594q-27 0 -46 18t-19 44z" />
<glyph unicode="&#x2013;" horiz-adv-x="1357" d="M115 571q0 27 17 46.5t44 19.5h1002q26 0 45.5 -18.5t19.5 -45.5q0 -26 -17.5 -44.5t-43.5 -18.5h-1002q-27 0 -46 17.5t-19 43.5z" />
<glyph unicode="&#x2014;" horiz-adv-x="1767" d="M115 592q0 27 17 46t44 19h1411q26 0 46 -18t20 -45q0 -26 -18 -45t-44 -19h-1411q-27 0 -46 18t-19 44z" />
<glyph unicode="&#x2018;" horiz-adv-x="528" d="M117 1243q0 78 54 141.5t132 106.5q17 9 32.5 8t24.5 -12t13 -24t-2.5 -28.5t-22.5 -25.5q-42 -25 -76.5 -66.5t-35.5 -82.5q20 4 30 4q38 0 62 -26t24 -64q0 -40 -32.5 -68.5t-73.5 -28.5q-59 0 -94 52t-35 114z" />
<glyph unicode="&#x2019;" horiz-adv-x="528" d="M118.5 1138.5q6.5 17.5 24.5 28.5q42 25 77 67t36 83q-20 -4 -31 -4q-38 0 -62 26t-24 64q0 40 33 68t74 28q59 0 94 -52t35 -114q0 -79 -55 -144.5t-132 -103.5q-41 -23 -67 15q-9 21 -2.5 38.5z" />
<glyph unicode="&#x201a;" horiz-adv-x="528" d="M110.5 -143.5q6.5 17.5 24.5 28.5q42 25 77 67t36 83q-20 -4 -31 -4q-38 0 -62 26t-24 64q0 40 33 68t74 28q59 0 94 -52t35 -114q0 -79 -55 -144.5t-132 -103.5q-41 -23 -67 15q-9 21 -2.5 38.5z" />
<glyph unicode="&#x201c;" horiz-adv-x="878" d="M123 1217q0 78 53.5 141t132.5 106q17 9 32.5 8t24.5 -12t13 -24t-2.5 -28.5t-22.5 -25.5q-42 -25 -76.5 -66.5t-35.5 -82.5q20 4 30 4q38 0 62 -26t24 -64q0 -40 -32.5 -68t-73.5 -28q-59 0 -94 52t-35 114zM467 1217q0 -62 35 -114t94 -52q41 0 73.5 28t32.5 68 q0 38 -24 64t-62 26q-10 0 -30 -4q1 41 35.5 82.5t76.5 66.5q16 10 22.5 25.5t2.5 28.5t-13 24t-24.5 12t-32.5 -8q-79 -43 -132.5 -106t-53.5 -141z" />
<glyph unicode="&#x201d;" horiz-adv-x="878" d="M125 1113q4 -13 13 -24t24.5 -12t32.5 8q78 43 132 106.5t54 141.5q0 62 -35 114t-94 52q-41 0 -74 -28t-33 -68q0 -38 24 -64t62 -26q11 0 31 4q-1 -41 -35.5 -83t-76.5 -67q-16 -10 -22.5 -25.5t-2.5 -28.5zM469 1113q-4 13 2.5 28.5t22.5 25.5q42 25 76.5 67t35.5 83 q-20 -4 -31 -4q-38 0 -62 26t-24 64q0 40 33 68t74 28q59 0 94 -52t35 -114q0 -78 -54 -141.5t-132 -106.5q-17 -9 -32.5 -8t-24.5 12t-13 24z" />
<glyph unicode="&#x201e;" horiz-adv-x="878" d="M125 -171q4 -13 13 -24t24.5 -12t32.5 8q78 43 132 106.5t54 141.5q0 62 -35 114t-94 52q-41 0 -74 -28t-33 -68q0 -38 24 -64t62 -26q11 0 31 4q-1 -41 -35.5 -83t-76.5 -67q-16 -10 -22.5 -25.5t-2.5 -28.5zM469 -171q-4 13 2.5 28.5t22.5 25.5q42 25 76.5 67t35.5 83 q-20 -4 -31 -4q-38 0 -62 26t-24 64q0 40 33 68t74 28q59 0 94 -52t35 -114q0 -78 -54 -141.5t-132 -106.5q-17 -9 -32.5 -8t-24.5 12t-13 24z" />
<glyph unicode="&#x2022;" horiz-adv-x="847" d="M207 725q0 88 64 150.5t153 62.5q90 0 153.5 -63.5t63.5 -153.5q0 -88 -64 -150.5t-153 -62.5q-90 0 -153.5 63.5t-63.5 153.5z" />
<glyph unicode="&#x2026;" horiz-adv-x="1581" d="M172 104q0 43 30 74t74 31q43 0 74 -31t31 -74q0 -44 -31 -74t-74 -30q-44 0 -74 30t-30 74zM684 104q0 43 30 74t74 31q43 0 74 -31t31 -74q0 -44 -31 -74t-74 -30q-44 0 -74 30t-30 74zM1202 104q0 43 30.5 74t74.5 31q43 0 73.5 -31t30.5 -74q0 -44 -30.5 -74 t-73.5 -30q-44 0 -74.5 30t-30.5 74z" />
<glyph unicode="&#x202f;" horiz-adv-x="380" />
<glyph unicode="&#x2039;" horiz-adv-x="727" d="M92 535q0 26 17 43l383 438q19 22 51 22q27 0 46 -20t19 -47q0 -24 -16 -43l-346 -393l346 -398q16 -19 16 -43q0 -26 -19.5 -45.5t-47.5 -19.5q-33 0 -49 22l-383 441q-17 17 -17 43z" />
<glyph unicode="&#x203a;" horiz-adv-x="724" d="M117 94q0 27 16 43l346 398l-346 393q-16 16 -16 43t19 47t46 20q29 0 51 -22l383 -438q17 -20 17 -43t-17 -43l-383 -441q-19 -22 -51 -22q-26 0 -45.5 19.5t-19.5 45.5z" />
<glyph unicode="&#x205f;" horiz-adv-x="475" />
<glyph unicode="&#x20ac;" horiz-adv-x="1560" d="M92 602q0 26 20 46t46 20h159q-5 50 2 120h-161q-27 0 -46.5 19.5t-19.5 46.5t19.5 46.5t46.5 19.5h186q65 226 248 373t412 147q215 0 374 -84q26 -16 31.5 -43.5t-8.5 -46.5q-12 -21 -34.5 -29t-49.5 2q-131 70 -305 70q-179 0 -323.5 -108.5t-207.5 -280.5h471 q28 0 47 -19t19 -47t-19 -47t-47 -19h-501q-7 -70 -2 -120h503q27 0 46.5 -19.5t19.5 -46.5q0 -28 -19 -46.5t-47 -18.5h-477q58 -181 213.5 -293.5t345.5 -112.5q175 0 320 92q39 20 67 2q30 -21 32 -57t-28 -55q-180 -113 -389 -113q-154 0 -299 65t-253 189.5t-144 282.5 h-182q-27 0 -46.5 19t-19.5 46z" />
<glyph unicode="&#x2122;" horiz-adv-x="1443" d="M25 1401q0 14 9.5 23.5t22.5 9.5h594q31 -3 49 -35l293 -510l295 510q7 15 22.5 25t30.5 10q13 0 23 -10t10 -23q0 -18 -18 -29q-10 -3 -10 -16v-565q0 -14 10 -17q18 -11 18 -29q0 -14 -10 -24t-23 -10q-27 0 -44 20.5t-17 46.5v467l-258 -442q-10 -19 -29 -19t-28 19 l-258 442v-467q0 -26 -18 -46.5t-44 -20.5q-13 0 -23 10t-10 24q0 19 17 29q10 2 10 17v565q0 12 -10 12h-262v-623q0 -14 -10 -24t-23 -10t-23 10t-10 24v623h-244q-13 0 -22.5 9.5t-9.5 23.5z" />
</font>
</defs>
</svg>
