<?xml version="1.0" standalone="no"?>
<!DOCTYPE svg PUBLIC "-//W3C//DTD SVG 1.1//EN" "http://www.w3.org/Graphics/SVG/1.1/DTD/svg11.dtd" >
<svg xmlns="http://www.w3.org/2000/svg">
<metadata></metadata>
<defs>
<font id="banda_semi_boldsemibold" horiz-adv-x="538" >
<font-face units-per-em="2048" ascent="1700" descent="-348" />
<missing-glyph horiz-adv-x="614" />
<glyph unicode="&#xfb01;" horiz-adv-x="1120" d="M34.5 960.5q-0.5 38.5 26 70.5t74.5 32h55v31q0 171 112.5 288t281.5 117q34 0 48.5 -0.5t49 -5.5t61 -15.5t68.5 -32t88 -52.5q45 -31 45 -82q0 -40 -28.5 -69.5t-67.5 -29.5q-29 0 -53 15q-75 48 -118.5 62t-84.5 14q-90 0 -143.5 -68t-53.5 -143v-29h412 q68 0 108.5 -52.5t40.5 -121.5v-680q0 -16 13 -29q35 -30 35 -78q0 -42 -31 -72t-78 -30q-58 0 -97 41.5t-44 99.5q-2 10 -2 31v662q0 8 -7 16t-20 8h-330v-702q0 -69 -42.5 -112.5t-110.5 -43.5q-44 0 -75.5 29t-31.5 75q0 27 9.5 47t18.5 27l9 6q18 11 18 35v639h-55 q-46 0 -73 32t-27.5 70.5z" />
<glyph unicode="&#xfb02;" horiz-adv-x="1140" d="M35.5 960.5q-0.5 38.5 27.5 70.5t78 32h58v78q0 145 116.5 253.5t268.5 108.5q161 0 273 -107.5t112 -258.5v-918q0 -24 18 -35q4 -2 10 -7t16.5 -25.5t10.5 -47.5q0 -46 -31 -75t-75 -29q-68 0 -111 43.5t-43 112.5v985q0 67 -52 115.5t-128 48.5q-74 0 -127.5 -49.5 t-53.5 -114.5v-78h121q49 0 77.5 -32t28.5 -70.5t-28 -70.5t-78 -32h-121v-702q0 -69 -42.5 -112.5t-110.5 -43.5q-44 0 -75.5 29t-31.5 75q0 27 9.5 47t18.5 27l9 6q19 11 19 35v639h-58q-49 0 -77 32t-28.5 70.5z" />
<glyph unicode="&#xfb03;" horiz-adv-x="1693" d="M35.5 960.5q-0.5 38.5 29 70.5t82.5 32h52v70q0 175 81 270.5t246 95.5q26 0 51.5 -4t55 -14.5t47.5 -34t18 -57.5q0 -42 -26 -65.5t-70 -25.5q-16 0 -39.5 3.5t-36.5 3.5q-70 0 -96.5 -41t-26.5 -117v-84h361v31q0 171 112 288t281 117q89 0 134 -11q85 -22 182 -95 q45 -33 45 -82q0 -40 -27.5 -67t-67.5 -27q-34 0 -53 16q-42 34 -83 51t-61 19t-52 2h-9q-61 0 -108 -36.5t-67.5 -84t-20.5 -92.5v-29h411q68 0 109 -52.5t41 -121.5v-680q0 -17 12 -29q35 -30 35 -78q0 -42 -31 -72t-78 -30q-58 0 -97 41.5t-44 99.5q-2 10 -2 31v662 q0 8 -7 16t-20 8h-329v-702q0 -69 -43 -112.5t-111 -43.5q-44 0 -75 29t-31 75q0 27 9 47t18 27l9 6q19 11 19 35v639h-361v-702q0 -69 -42.5 -112.5t-110.5 -43.5q-44 0 -75.5 29t-31.5 75q0 27 9.5 47t18.5 27l9 6q19 11 19 35v639h-52q-51 0 -81 32t-30.5 70.5z" />
<glyph unicode="&#xfb04;" horiz-adv-x="1695" d="M35.5 960.5q-0.5 38.5 29 70.5t82.5 32h52v70q0 175 81 270.5t246 95.5q26 0 52 -4t56.5 -14.5t49 -34t18.5 -57.5q0 -43 -29 -75.5t-71 -33.5q-16 0 -39.5 3t-36.5 3q-71 0 -95.5 -33t-24.5 -106v-84h350v78q0 145 115.5 253.5t267.5 108.5q161 0 275 -108.5t110 -257.5 v-918q0 -24 18 -35q4 -2 10 -7t16.5 -25.5t10.5 -47.5q0 -46 -31 -75t-75 -29q-68 0 -111 43.5t-43 112.5v985q0 67 -52 115.5t-128 48.5q-74 0 -126 -49t-52 -115v-78h118q49 0 77.5 -32t28.5 -70.5t-28 -70.5t-78 -32h-121v-702q0 -69 -42.5 -112.5t-110.5 -43.5 q-44 0 -75.5 29t-31.5 75q0 27 9 47t19 27l9 6q19 11 19 35v639h-351v-702q0 -69 -42.5 -112.5t-110.5 -43.5q-44 0 -75.5 29t-31.5 75q0 27 9.5 47t18.5 27l9 6q19 11 19 35v639h-52q-51 0 -81 32t-30.5 70.5z" />
<glyph horiz-adv-x="0" />
<glyph horiz-adv-x="682" />
<glyph horiz-adv-x="0" />
<glyph horiz-adv-x="0" />
<glyph unicode="&#xd;" horiz-adv-x="573" />
<glyph unicode=" "  horiz-adv-x="614" />
<glyph unicode="&#x09;" horiz-adv-x="614" />
<glyph unicode="&#xa0;" horiz-adv-x="614" />
<glyph unicode="!" horiz-adv-x="610" d="M154 147q0 63 44 108.5t107 45.5t107.5 -45.5t44.5 -108.5t-44.5 -107t-107.5 -44t-107 44t-44 107zM176 1319q0 56 38.5 88.5t92.5 32.5q52 0 90.5 -31.5t38.5 -83.5q0 -4 -45 -854q-3 -43 -28 -66.5t-58 -23.5t-57 23.5t-25 66.5z" />
<glyph unicode="&#x22;" horiz-adv-x="915" d="M106 975l23 420q3 50 42.5 78.5t88.5 23.5q50 -5 84 -44t23 -91l-88 -412q-7 -32 -27.5 -51t-45.5 -21t-48.5 6.5t-38.5 33t-13 57.5zM551 975l22 420q3 50 42.5 78.5t86.5 23.5q50 -5 84.5 -44t24.5 -91l-88 -412q-9 -40 -38 -58.5t-59.5 -14.5t-53.5 30.5t-21 67.5z " />
<glyph unicode="#" horiz-adv-x="1554" d="M55 416q0 43 31 73.5t74 30.5h186l64 367h-162q-43 0 -74 30.5t-31 73.5t31 73t74 30h198l46 241q7 43 42 67.5t78 16.5q41 -8 65 -43t17 -78l-37 -204h381l45 241q7 43 42.5 67.5t76.5 16.5q43 -7 67.5 -42.5t16.5 -78.5l-39 -204h146q43 0 73.5 -30t30.5 -73 t-30.5 -73.5t-73.5 -30.5h-183l-63 -367h160q41 0 71.5 -30.5t30.5 -73.5q0 -41 -30.5 -72t-71.5 -31h-197l-41 -227q-8 -42 -43.5 -66.5t-77.5 -17.5q-41 8 -65 43t-17 78l35 190h-383l-41 -227q-8 -41 -43 -66t-76 -18q-42 8 -66.5 43.5t-17.5 77.5l35 190h-149 q-42 0 -72.5 30.5t-32.5 72.5zM555 520h383l63 367h-380z" />
<glyph unicode="$" horiz-adv-x="1165" d="M88 1065q0 151 122 256.5t298 126.5v127q0 28 19 46.5t48 18.5q28 0 47 -18.5t19 -46.5v-123q206 -17 326 -127q34 -34 34 -82q0 -40 -29 -69t-71 -29q-35 0 -61 20q-92 69 -199 80v-450q49 -17 85 -30.5t83 -36t80.5 -45t69 -55t57 -68.5t35.5 -83.5t14 -101.5 q0 -73 -25 -134.5t-66 -104t-97 -74.5t-114.5 -49.5t-121.5 -26.5v-115q0 -28 -19 -47t-47 -19q-29 0 -48 19t-19 47v111q-248 11 -377 137q-31 31 -31 78q0 39 26.5 67.5t68.5 28.5q35 0 73 -25q106 -72 240 -84v443q-54 19 -91.5 34t-85 38.5t-79.5 46.5t-65.5 56 t-53.5 70.5t-32.5 86.5t-12.5 106zM293 1065q0 -75 56.5 -125.5t158.5 -93.5v397q-94 -15 -154.5 -64t-60.5 -114zM641 193q97 18 157 64.5t60 111.5q0 130 -217 211v-387z" />
<glyph unicode="%" horiz-adv-x="1630" d="M76 1098q0 134 92.5 234t224.5 100t226 -104t94 -230q0 -133 -93.5 -232.5t-226.5 -99.5t-225 99t-92 233zM268 1098q0 -54 36 -95.5t89 -41.5q54 0 88.5 41t34.5 96t-34.5 96t-88.5 41q-53 0 -89 -41.5t-36 -95.5zM334 102q0 31 18 58l742 1231q26 45 86 45 q44 0 74 -30.5t30 -72.5q0 -29 -16 -55l-744 -1233q-28 -45 -88 -45q-48 0 -75 31t-27 71zM918 332q0 134 92.5 234t224.5 100t225.5 -104t93.5 -230q0 -133 -93 -232.5t-226 -99.5t-225 99t-92 233zM1110 332q0 -54 36 -95.5t89 -41.5q54 0 88.5 41t34.5 96t-34.5 96 t-88.5 41q-53 0 -89 -41.5t-36 -95.5z" />
<glyph unicode="&#x26;" horiz-adv-x="1394" d="M63 420q0 73 18 132t55 107.5t81.5 85.5t108.5 78q-64 75 -96.5 139t-32.5 146q0 144 102.5 235t245.5 91q144 0 246 -90.5t102 -231.5q0 -113 -63.5 -204t-170.5 -136l213 -207q72 164 93 187q47 57 116 57q46 0 81.5 -28t35.5 -72q0 -35 -19.5 -64t-52.5 -35 q-15 -3 -22 -20l-84 -172l199 -195q10 -10 28 -10q41 0 71 -30.5t30 -71.5q0 -48 -37.5 -79.5t-85.5 -31.5q-70 0 -127 57l-168 166q-61 -103 -171 -163t-233 -60q-208 0 -335.5 118t-127.5 302zM266 420q0 -97 73.5 -157t190.5 -60q84 0 151 45t101 121l-313 307 q-43 -25 -64 -38t-53 -38.5t-47 -48t-27 -57t-12 -74.5zM399 1108q0 -13 1.5 -25t6.5 -24t8.5 -21t13 -22t13 -18.5t16 -20t15.5 -17.5t18 -18.5t17 -17.5q34 14 55 24.5t48 28t42 35t26 43.5t11 57q0 57 -41.5 93t-97.5 36q-59 0 -105.5 -38t-46.5 -95z" />
<glyph unicode="'" horiz-adv-x="471" d="M106 975l23 420q3 50 42.5 78.5t88.5 23.5q50 -5 84 -44t23 -91l-88 -412q-7 -32 -27.5 -51t-45.5 -21t-48.5 6.5t-38.5 33t-13 57.5z" />
<glyph unicode="(" horiz-adv-x="548" d="M109 705q2 184 45.5 365.5t130.5 322.5q26 41 69.5 44t76 -25.5t32.5 -70.5q0 -20 -10 -43q-128 -255 -131 -596q0 -291 120 -596q14 -49 -12 -91t-74 -42q-27 0 -50.5 14t-35.5 38q-161 308 -161 680z" />
<glyph unicode=")" horiz-adv-x="548" d="M90 1365q9 36 43 58q29 22 69 13t62 -43q87 -141 130.5 -322.5t45.5 -365.5q0 -372 -161 -680q-15 -31 -51.5 -44.5t-69.5 -0.5q-34 15 -49 51.5t-3 74.5q121 307 121 596q-3 341 -131 596q-15 31 -6 67z" />
<glyph unicode="*" horiz-adv-x="876" d="M123 1223q9 33 40 51.5t62 5.5l144 -53l-11 141q-1 36 23 60t57 24q36 0 59.5 -20t22.5 -60l-10 -143l143 51q32 10 62 -6.5t39 -48.5q11 -33 -6 -64t-50 -37l-143 -26l98 -123q21 -27 16 -59.5t-32 -53.5q-28 -21 -63 -15.5t-52 34.5l-80 137l-82 -137 q-19 -29 -52.5 -35.5t-61.5 12.5q-27 19 -34.5 53.5t13.5 61.5l105 121l-148 30q-32 7 -49.5 36.5t-9.5 62.5z" />
<glyph unicode="+" horiz-adv-x="989" d="M94 569q0 41 29 71t67 30h205v202q0 40 29 70.5t68 30.5q41 0 70.5 -28t29.5 -68v-207h203q40 0 70 -28t30 -69t-27.5 -70.5t-68.5 -29.5h-207v-203q0 -40 -27.5 -70t-66.5 -30q-42 0 -72.5 28.5t-30.5 67.5v207h-200q-42 0 -71.5 27.5t-29.5 68.5z" />
<glyph unicode="," horiz-adv-x="540" d="M84 -268q-28 51 35 92q51 31 90.5 82t42.5 104q-32 -14 -65 -9t-56 28q-39 39 -39 92q0 55 44 93t100 38q92 0 141 -92q31 -55 32.5 -121t-24.5 -123q-25 -61 -82.5 -115.5t-124.5 -89.5q-33 -15 -57 -8t-37 29z" />
<glyph unicode="-" horiz-adv-x="942" d="M98 569q0 42 28.5 71.5t68.5 29.5h548q41 0 71 -27.5t30 -67.5q0 -42 -27.5 -72t-66.5 -30h-551q-40 0 -70.5 28.5t-30.5 67.5z" />
<glyph unicode="." horiz-adv-x="563" d="M131 150q0 63 44 107t106 44q63 0 107 -44t44 -107q0 -62 -44 -106t-107 -44q-61 0 -105.5 44t-44.5 106z" />
<glyph unicode="/" horiz-adv-x="925" d="M8 -47l760 1667q12 28 36 44.5t54 16.5q53 0 76 -45.5t2 -87.5l-758 -1667q-12 -29 -37 -45t-53 -14q-51 1 -75 44t-5 87z" />
<glyph unicode="0" horiz-adv-x="1349" d="M96 717q0 101 25 203.5t75 194.5t118.5 163.5t161.5 113.5t198 42t198 -42t161.5 -113.5t119 -163.5t75.5 -194.5t25 -203.5t-24 -202t-73.5 -193.5t-117 -164.5t-162 -114.5t-202.5 -42.5t-202.5 42.5t-162 114.5t-116.5 164.5t-73 193.5t-24 202zM305 719 q0 -64 14 -133t44.5 -137.5t72.5 -122.5t104 -87.5t134 -33.5q90 0 163.5 50t117 128t66.5 165.5t23 170.5q0 66 -14 135t-44.5 136.5t-73 120.5t-104.5 85.5t-134 32.5q-71 0 -132.5 -33t-104 -86t-73 -120.5t-45 -136.5t-14.5 -134z" />
<glyph unicode="1" horiz-adv-x="620" d="M25 1147q0 49 36 82l207 176q29 29 72 29q42 0 72 -28.5t30 -76.5v-1227q0 -43 -30.5 -72.5t-73.5 -29.5t-74 30.5t-31 71.5v1000l-34 -31q-32 -29 -72 -29q-43 0 -72.5 31.5t-29.5 73.5z" />
<glyph unicode="2" horiz-adv-x="1107" d="M53 104q0 85 32 161.5t81 132t119 112.5t134.5 98t140.5 93.5t124 93.5q48 40 77.5 93.5t29.5 110.5q0 110 -81.5 169t-193.5 59q-172 0 -237 -125q-28 -52 -89 -55q-45 0 -75.5 31t-30.5 73q0 25 12 49q61 115 172.5 174.5t247.5 59.5h8q129 0 236.5 -54t172 -157 t64.5 -234q0 -42 -8.5 -81.5t-19.5 -72t-34.5 -67.5t-41.5 -59t-53.5 -55.5t-57 -50t-65 -48.5t-64.5 -44t-69 -45q-11 -7 -17 -11q-63 -40 -105.5 -70t-96 -80t-78.5 -96h633q43 0 72.5 -30t29.5 -73t-30 -74.5t-72 -31.5h-762q-44 0 -74.5 30.5t-30.5 73.5z" />
<glyph unicode="3" horiz-adv-x="1222" d="M76 434q0 45 29.5 77t74.5 32t77 -32t32 -77q7 -108 96.5 -168.5t210.5 -60.5q57 0 110 12.5t99.5 38.5t74 72t27.5 106q0 115 -83 172.5t-203 57.5q-47 0 -79 30t-32 72q0 43 30.5 72.5t75.5 29.5q53 0 107 21t92.5 63.5t38.5 94.5q0 78 -73.5 127t-159.5 49 q-79 0 -143 -31t-97 -96q-29 -53 -90 -56q-45 0 -76 32t-31 75q0 23 13 49q61 116 173.5 176t250.5 60q114 -2 215 -50t165 -136.5t64 -196.5q0 -94 -44 -169t-110 -100q90 -30 146.5 -125t56.5 -221q0 -99 -43 -182.5t-114.5 -138t-164.5 -85t-194 -30.5q-94 0 -186.5 30 t-167.5 84.5t-121.5 138.5t-46.5 183z" />
<glyph unicode="4" horiz-adv-x="1224" d="M59 440q0 35 27 74l700 881q33 39 80 39q42 0 73.5 -29.5t31.5 -75.5v-784h82q43 0 73.5 -31t30.5 -74t-30.5 -73.5t-73.5 -30.5h-82v-232q0 -43 -30 -73.5t-73 -30.5t-73.5 30.5t-30.5 73.5v232h-602q-43 0 -73 30.5t-30 73.5zM377 545h387v487z" />
<glyph unicode="5" horiz-adv-x="1163" d="M86 301q0 41 31.5 73t72.5 32q27 0 52.5 -13.5t38.5 -36.5q86 -145 278 -145q140 0 227.5 72.5t87.5 191.5q0 132 -86.5 202.5t-228.5 70.5q-122 0 -211 -74q-25 -21 -60.5 -22.5t-62.5 12.5q-47 26 -47 94l80 585q4 38 34 64.5t68 26.5h537q43 0 73.5 -30.5t30.5 -74.5 q0 -43 -30.5 -72.5t-73.5 -29.5h-444l-47 -328q19 17 69.5 34t93.5 17q100 0 190.5 -31t162.5 -89t114.5 -149.5t42.5 -203.5q0 -206 -145 -341.5t-375 -135.5q-142 2 -265 66.5t-192 181.5q-16 26 -16 53z" />
<glyph unicode="6" horiz-adv-x="1222" d="M94 676q0 73 7.5 144.5t26 147.5t46 142.5t71.5 127t99 103.5t130.5 68t164.5 25q118 0 202.5 -26t164.5 -89q38 -30 38 -80q0 -44 -26 -74t-78 -30q-35 0 -66 22q-106 70 -231 70q-105 0 -184 -64.5t-118 -166t-42 -224.5q65 98 151.5 142t174.5 44q98 0 187 -32.5 t159 -93t111.5 -154t41.5 -207.5q0 -129 -72.5 -238.5t-189 -171t-244.5 -61.5q-114 0 -205.5 41t-150 108t-97.5 157t-55 181.5t-16 188.5zM334 475q0 -115 86 -196.5t203 -81.5q116 0 202 81.5t86 196.5t-86 197t-202 82t-202.5 -82t-86.5 -197z" />
<glyph unicode="7" horiz-adv-x="1118" d="M74 1315q0 43 29.5 73.5t72.5 30.5h752q41 0 71.5 -30t30.5 -70q0 -24 -14 -59l-481 -1192q-10 -30 -38 -49t-61 -19q-44 0 -73 32t-29 72q0 17 6 35l434 1073h-594q-43 0 -74.5 30.5t-31.5 72.5z" />
<glyph unicode="8" horiz-adv-x="1169" d="M82 420q0 124 59 216.5t162 139.5q-72 64 -105.5 133t-33.5 166q0 113 61.5 201.5t157 133t203.5 44.5q107 0 202 -44.5t156.5 -133t61.5 -201.5q0 -96 -33.5 -165.5t-104.5 -133.5q102 -47 160.5 -139.5t58.5 -216.5q0 -100 -43 -184.5t-114 -139.5t-161 -85.5 t-185 -30.5q-94 0 -183.5 30.5t-160.5 85.5t-114.5 139.5t-43.5 184.5zM301 416q0 -105 85 -172.5t200 -67.5t199.5 67.5t84.5 172.5t-84.5 173t-199.5 68t-200 -68t-85 -173zM365 1067q0 -83 69 -143t152 -60q81 0 150 60t69 143q0 82 -67.5 134t-151.5 52q-85 0 -153 -52 t-68 -134z" />
<glyph unicode="9" horiz-adv-x="1222" d="M98 963q0 129 72.5 238.5t189 171t244.5 61.5q114 0 205.5 -41t150 -108t97.5 -157t55 -181.5t16 -188.5q0 -86 -11 -169t-34.5 -171t-66 -161t-100.5 -132t-143.5 -92t-188.5 -33q-118 0 -202.5 26t-164.5 89q-29 23 -36 55.5t6 59t37 47t57.5 20.5t66.5 -21 q104 -69 232 -69q105 0 184 64.5t118 166t42 224.5q-66 -98 -152 -142.5t-174 -44.5q-132 0 -244 55.5t-184 168.5t-72 264zM311 958q0 -115 86 -196.5t203 -81.5t203 81.5t86 196.5t-86.5 197t-202.5 82t-202.5 -82t-86.5 -197z" />
<glyph unicode=":" horiz-adv-x="583" d="M141 150q0 63 44 107t106 44q63 0 107 -44t44 -107q0 -62 -44 -106t-107 -44q-61 0 -105.5 44t-44.5 106zM141 811q0 61 44.5 105.5t105.5 44.5q63 0 107 -44t44 -106q0 -63 -44 -107.5t-107 -44.5q-62 0 -106 44.5t-44 107.5z" />
<glyph unicode=";" horiz-adv-x="557" d="M84 -240q0 37 41 62q53 34 92.5 84t40.5 102q-12 -10 -47 -10q-48 0 -79.5 36t-31.5 85q0 55 44 93t100 38q89 0 141 -92q59 -113 8 -244q-25 -61 -82.5 -115.5t-124.5 -89.5q-18 -10 -41 -10q-27 0 -44 18.5t-17 42.5zM100 807q0 63 44 107t106 44t105.5 -44t43.5 -107 q0 -62 -44 -106t-105 -44q-62 0 -106 44.5t-44 105.5z" />
<glyph unicode="&#x3c;" horiz-adv-x="892" d="M86 715q0 31 16.5 57.5t44.5 38.5l445 242q38 20 78.5 9.5t64.5 -50.5q20 -35 8.5 -80.5t-51.5 -63.5l-344 -153l344 -156q38 -17 51 -60t-8 -81q-22 -38 -61.5 -50t-81.5 9l-445 241q-27 12 -44 39t-17 58z" />
<glyph unicode="=" horiz-adv-x="962" d="M125 418q0 41 27.5 70.5t68.5 29.5h516q40 0 70 -27.5t31 -68.5q0 -40 -29 -70t-68 -30h-516q-42 0 -71 27.5t-29 68.5zM125 721q0 43 28 72.5t68 29.5h516q40 0 70 -28t31 -68q0 -41 -28.5 -70.5t-68.5 -29.5h-516q-41 0 -70.5 27t-29.5 67z" />
<glyph unicode="&#x3e;" horiz-adv-x="892" d="M145 469q0 29 14.5 53.5t41.5 36.5l344 156l-344 153q-27 12 -41.5 37.5t-14.5 55.5q0 44 31.5 75t73.5 31q23 0 51 -14l444 -242q28 -12 45 -38.5t17 -57.5t-17 -58t-45 -39l-444 -241q-30 -15 -51 -15q-43 0 -74 32.5t-31 74.5z" />
<glyph unicode="?" horiz-adv-x="845" d="M41.5 1270q7.5 41 40.5 67q126 97 295 97q99 0 187 -39.5t145 -116.5q67 -92 67 -207q0 -56 -25 -115.5t-63.5 -109.5t-77.5 -92t-76.5 -80.5t-50.5 -59.5q-32 -53 -32 -102v-39q0 -40 -25.5 -68t-69.5 -28q-40 0 -67 28.5t-27 71.5v33q0 121 62 215q22 34 65 81.5t75 82 t57.5 84.5t25.5 100q0 78 -46.5 121t-121.5 43q-103 0 -184 -59q-34 -24 -71.5 -19.5t-62.5 33.5q-27 37 -19.5 78zM207 147q0 63 44 107.5t107 44.5t107.5 -44.5t44.5 -107.5t-44.5 -108t-107.5 -45t-107 45t-44 108z" />
<glyph unicode="@" horiz-adv-x="2164" d="M72 578q0 161 51.5 314t146 277.5t219.5 219t279 146.5t317 52q212 0 398 -74t320.5 -204t212 -315t77.5 -398q0 -349 -160 -514q-107 -113 -268 -113q-105 0 -187 43.5t-126 130.5q-175 -172 -389 -172q-106 0 -194 43t-144.5 115t-87.5 163.5t-31 190.5q0 135 53.5 264 t149.5 220q80 74 181.5 114.5t209.5 40.5q70 0 138 -18t126.5 -60t79.5 -100q13 32 42.5 49t61.5 17q44 0 74.5 -30.5t30.5 -72.5q0 -27 -7.5 -45.5t-15.5 -27t-24 -19.5q-14 -11 -17 -27q-6 -38 -20.5 -116t-22 -122t-14 -102.5t-6.5 -101.5q2 -81 35 -120.5t104 -39.5 q54 0 94 31t61.5 75.5t35 105t17 106.5t3.5 94q0 226 -103 403t-283 273t-405 96q-161 0 -308.5 -63t-254 -170t-170 -254.5t-63.5 -309.5q0 -161 64.5 -309t172.5 -255t256.5 -170.5t309.5 -63.5q188 0 358 88q59 27 108.5 -4.5t49.5 -98.5q0 -28 -17 -52t-34 -34l-17 -10 q-210 -106 -450 -106q-205 0 -393.5 82.5t-325 220.5t-218 326t-81.5 391zM719 473q0 -116 68.5 -202.5t177.5 -86.5q114 0 207 80.5t137 190.5q30 72 33 151.5t-20.5 147t-83 111.5t-144.5 44q-110 0 -197.5 -65.5t-132.5 -164.5t-45 -206z" />
<glyph unicode="A" horiz-adv-x="1447" d="M101.5 176.5q19.5 30.5 50.5 34.5q21 4 30 25l39 100l393 1057q13 36 43.5 55.5t67.5 19.5t67.5 -19.5t43.5 -55.5l432 -1157q9 -21 30 -25q31 -3 50.5 -33.5t19.5 -68.5q0 -49 -34.5 -79t-90.5 -30q-48 0 -85.5 26.5t-57.5 75.5l-105 271h-540l-105 -271 q-19 -47 -56 -74.5t-83 -27.5q-58 0 -94 30q-35 30 -35 80q0 36 19.5 66.5zM506 553h438l-178 491l-41 142h-2l-41 -144z" />
<glyph unicode="B" horiz-adv-x="1357" d="M178 102q0 56 45 86q15 10 15 35v987q0 25 -15 35q-45 30 -45 86q0 41 33 72t76 31h471q181 0 306.5 -114.5t125.5 -295.5q0 -35 -6 -70.5t-20 -75.5t-42.5 -74.5t-68.5 -53.5q70 -20 118 -75.5t68.5 -121.5t22.5 -141q0 -190 -113.5 -301t-290.5 -111h-571 q-43 0 -76 30.5t-33 71.5zM426 207h432q93 0 145 61.5t52 145.5q0 85 -52 147t-145 62h-416v-375q0 -12 -4 -22.5t-8 -14.5zM426 1227q16 -14 16 -41v-359h322q92 0 155.5 53.5t63.5 143.5t-64.5 146.5t-158.5 56.5h-334z" />
<glyph unicode="C" horiz-adv-x="1345" d="M106 719q0 147 56.5 282t153.5 234.5t235.5 159t294.5 59.5q187 0 348 -88q55 -27 55 -90q0 -44 -30 -73t-72 -29q-27 0 -51 12q-126 63 -250 63q-111 0 -211 -43t-170.5 -115.5t-112 -169.5t-41.5 -202q0 -144 73.5 -267.5t197.5 -195.5t266 -72q152 0 280 84 q29 17 58 17q26 0 51 -14q53 -29 53 -89q0 -56 -47 -86q-182 -116 -399 -116q-120 0 -232.5 38t-203 106.5t-159 159.5t-106 203.5t-37.5 231.5z" />
<glyph unicode="D" horiz-adv-x="1456" d="M178 102q0 56 45 86q15 10 15 35v987q0 25 -15 35q-45 30 -45 86q0 41 33 72t76 31h311q353 0 553 -191q199 -188 199 -524q0 -203 -77.5 -368.5t-240.5 -260.5q-160 -90 -319 -90h-426q-43 0 -76 30.5t-33 71.5zM426 205h287q117 6 217 65q113 66 163 185t50 264 q0 250 -135 377q-139 131 -373 131h-209q16 -14 16 -41v-940q0 -12 -4 -22.5t-8 -14.5z" />
<glyph unicode="E" horiz-adv-x="1304" d="M178 102q0 56 45 86q15 10 15 35v987q0 25 -15 35q-45 30 -45 86q0 41 33 72t76 31h794q43 0 74 -31t31 -74q0 -42 -31 -72t-74 -30h-655q16 -14 16 -41v-385h527q47 0 73 -32q26 -31 27 -69q1 -40 -27 -72q-26 -32 -73 -32h-527v-348q0 -12 -4 -22.5t-8 -14.5l-4 -4h694 q46 -1 72 -33q27 -33 28 -72q0 -38 -26 -70t-74 -32h-833q-43 0 -76 30.5t-33 71.5z" />
<glyph unicode="F" horiz-adv-x="1228" d="M176 1331q0 41 33 72t76 31h764q43 0 73.5 -31t30.5 -74t-30.5 -72.5t-73.5 -29.5h-625q16 -14 16 -41v-383h490q39 0 65.5 -21.5t32.5 -51.5t0 -60.5t-33 -52t-65 -21.5h-490v-440q0 -69 -43.5 -112.5t-111.5 -43.5q-44 0 -73.5 29t-29.5 75q0 22 9.5 45.5t25.5 34.5 q1 1 4 3.5t4 3t3.5 3t3.5 4.5t2 5t1.5 7t0.5 9v991q0 25 -15 35q-45 30 -45 86z" />
<glyph unicode="G" horiz-adv-x="1650" d="M106 717q0 148 55 283t158 239q103 103 239 159t282 56q272 0 458 -160q32 -27 39.5 -61t-7 -61.5t-39.5 -47t-59.5 -19t-64.5 24.5q-151 119 -327 119q-107 0 -205 -43t-169 -114.5t-113 -169.5t-42 -205q0 -142 71.5 -265t193.5 -195.5t264 -72.5q114 0 218 49.5 t183 139.5v170q0 12 3.5 21.5t7.5 12.5l3 3h-311q-49 0 -76 32q-28 32 -29 72q0 39 28 70q28 32 77 32h486q43 0 73.5 -30.5t30.5 -71.5q0 -34 -17.5 -60t-46.5 -38q-24 -10 -24 -35v-217q0 -39 -21 -66q-104 -136 -258.5 -212t-326.5 -76q-150 0 -286 58t-234 157 t-156 235.5t-58 286.5z" />
<glyph unicode="H" horiz-adv-x="1660" d="M178 104q0 22 9.5 46t25.5 34q18 11 18 35v995q0 24 -18 35q-16 10 -25.5 34t-9.5 46q0 46 30.5 75.5t74.5 29.5q68 0 110.5 -43.5t42.5 -112.5v-473h789v473q0 69 42.5 112.5t110.5 43.5q44 0 74.5 -29.5t30.5 -75.5q0 -22 -9.5 -46t-25.5 -34q-18 -11 -18 -35v-995 q0 -24 18 -35q16 -10 25.5 -34t9.5 -46q0 -46 -30.5 -75t-74.5 -29q-68 0 -110.5 43.5t-42.5 112.5v442h-789v-442q0 -69 -42.5 -112.5t-110.5 -43.5q-44 0 -74.5 29t-30.5 75z" />
<glyph unicode="I" horiz-adv-x="581" d="M188 102v1229q0 43 30 73t73 30q41 0 71.5 -30t30.5 -73v-1229q0 -41 -30.5 -71.5t-71.5 -30.5q-43 0 -73 30t-30 72z" />
<glyph unicode="J" horiz-adv-x="1126" d="M78 344q27 28 67 28h7q45 -3 71 -38q53 -72 113.5 -106.5t142.5 -34.5q115 0 175.5 85.5t60.5 210.5v789q0 69 42.5 112.5t110.5 43.5q44 0 74.5 -29.5t30.5 -75.5q0 -24 -9 -48t-26 -32q-18 -11 -18 -35v-722q0 -223 -122 -357.5t-323 -134.5q-250 0 -399 201 q-25 30 -25 71q0 45 27 72z" />
<glyph unicode="K" horiz-adv-x="1431" d="M176 1329q0 46 31.5 75.5t75.5 29.5q68 0 110.5 -43.5t42.5 -112.5v-408l-6 -168l148 168l403 422q15 17 12 43v8q0 35 30 61q34 30 77 30q49 0 81.5 -33.5t32.5 -89.5q0 -74 -55 -133l-371 -387l441 -562q12 -16 26 -14h5q38 0 66 -27q30 -29 30 -77q0 -50 -40 -80.5 t-93 -30.5q-80 5 -133 72l-447 567l-207 -215v-268q0 -69 -42.5 -112.5t-110.5 -43.5q-44 0 -74.5 29t-30.5 75q0 58 35 80q18 11 18 35v995q0 24 -18 35q-37 22 -37 80z" />
<glyph unicode="L" horiz-adv-x="1218" d="M176 102q0 56 45 86q15 10 15 35v991q0 24 -19 35q-35 23 -35 80q0 46 32.5 75.5t76.5 29.5q67 0 108 -42.5t41 -111.5v-1032q0 -12 -4 -22.5t-8 -14.5l-4 -4h629q43 -1 73 -29q29 -28 29 -73t-31 -75q-30 -30 -71 -30h-768q-43 0 -76 30.5t-33 71.5z" />
<glyph unicode="M" horiz-adv-x="1943" d="M176 1331q0 43 31 73t74 30t80 -23.5t61 -62.5l551 -883l549 883q24 39 61 62.5t80 23.5t73.5 -30t30.5 -73q0 -26 -12.5 -50t-32.5 -36q-14 -8 -14 -28v-996q0 -24 18 -35q39 -23 39 -77q0 -46 -32 -77.5t-76 -31.5q-67 0 -110.5 44.5t-43.5 113.5v645l6 112h-2 l-57 -112l-387 -600q-31 -53 -91 -53q-1 0 -2 -1q-59 0 -89 54l-387 600l-58 112h-2l6 -112v-645q0 -69 -43 -113.5t-110 -44.5q-44 0 -74.5 30t-30.5 76q0 52 35 80q1 1 4 3.5t4 3t3.5 3t3.5 4.5t2 5t1.5 7t0.5 9v996q0 19 -15 28q-20 12 -32.5 36t-12.5 50z" />
<glyph unicode="N" horiz-adv-x="1605" d="M178 1333q0 46 31 73.5t74 27.5q46 0 76.5 -19.5t64.5 -60.5l641 -776l104 -154h2l-6 154v692q0 77 42.5 120.5t111.5 43.5q44 0 75 -29.5t31 -75.5q0 -61 -36 -80q-19 -11 -19 -35v-999q0 -25 10 -29q20 -10 33.5 -35t13.5 -51q0 -46 -30.5 -73t-73.5 -27 q-46 0 -76.5 19.5t-64.5 60.5l-641 776l-105 154h-2l6 -154v-698q0 -69 -43 -113.5t-110 -44.5q-44 0 -75.5 30t-31.5 76q0 54 37 80q19 11 19 35v998q0 24 -11 28q-20 10 -33.5 35t-13.5 51z" />
<glyph unicode="O" horiz-adv-x="1687" d="M106 719q0 146 60 282t160 235t236.5 158.5t283.5 59.5q146 0 282 -59.5t235 -158.5t158.5 -235t59.5 -282q0 -147 -59.5 -283.5t-158.5 -236t-235 -159.5t-282 -60q-107 0 -206.5 28t-180 78t-147.5 119.5t-112 151.5t-69.5 174.5t-24.5 187.5zM315 719 q0 -144 71.5 -266.5t194 -193.5t265.5 -71t264.5 71t192.5 193.5t71 266.5q0 143 -71.5 264.5t-194 192.5t-266.5 71q-142 0 -263.5 -71t-192.5 -193t-71 -264z" />
<glyph unicode="P" horiz-adv-x="1300" d="M178 1331q0 41 33 72t76 31h528q173 0 296.5 -124.5t123.5 -297.5q0 -170 -122.5 -296t-291.5 -126h-379v-432q0 -69 -43 -113.5t-110 -44.5q-44 0 -76.5 31.5t-32.5 77.5q0 25 11 46.5t28 30.5q19 11 19 35v989q0 25 -15 35q-45 30 -45 86zM426 1227q16 -14 16 -41v-391 h373q88 0 151.5 64t63.5 153q0 88 -63.5 151.5t-151.5 63.5h-389z" />
<glyph unicode="Q" horiz-adv-x="1685" d="M113 717q0 200 98 369.5t266.5 268.5t368.5 99t368.5 -99t266.5 -268.5t98 -369.5q0 -126 -41 -243t-117 -210l31 -28q6 -5 10.5 -7t7 -2.5t9 0t10.5 0.5q43 0 73.5 -29.5t30.5 -70.5q0 -62 -38.5 -94.5t-98.5 -32.5q-64 0 -127 53l-63 62q-187 -135 -420 -135 q-148 0 -284 59t-234 158t-156.5 235.5t-58.5 284.5zM319 717q0 -144 70.5 -266t192 -192.5t264.5 -70.5q131 0 262 72l-176 162q-23 21 -33.5 46t-7 47.5t15 43.5t31.5 34t42 18.5t48 -2.5t49 -29l191 -177q104 142 104 314q0 144 -71 265t-192 191t-263 70 q-143 0 -264.5 -70t-192 -191t-70.5 -265z" />
<glyph unicode="R" horiz-adv-x="1421" d="M178 1331q0 41 33 72t76 31h526q175 0 298.5 -123t123.5 -299q0 -132 -73 -240t-191 -156l233 -407q7 -13 26 -14t30 -7q45 -23 45 -82q0 -47 -36 -76.5t-83 -29.5q-97 0 -150 90l-286 496h-308v-428q0 -69 -43 -113.5t-110 -44.5q-44 0 -76.5 31.5t-32.5 77.5 q0 57 39 77q19 11 19 35v989q0 25 -15 35q-45 30 -45 86zM426 1227q16 -14 16 -41v-393h371q90 0 153.5 64.5t63.5 154.5q0 89 -63 152t-154 63h-387z" />
<glyph unicode="S" horiz-adv-x="1173" d="M96 1065q0 84 41 157.5t109.5 124t157.5 79t184 28.5q247 0 387 -129q37 -37 37 -78q0 -40 -31.5 -71t-73.5 -31q-33 0 -59 20q-114 84 -260 84q-118 0 -202.5 -53.5t-84.5 -130.5q0 -34 12 -63t38.5 -54t51.5 -43.5t69 -38.5t72.5 -31.5t78.5 -29.5q56 -19 88 -31 t86 -36t87 -45.5t73 -55.5t62.5 -70t38 -85.5t15.5 -106.5q0 -84 -33.5 -152.5t-86.5 -112.5t-122.5 -74.5t-138.5 -43t-137 -12.5q-270 0 -416 139q-30 30 -30 78q0 40 26 68t68 28q35 0 73 -25q127 -84 275 -84q132 0 223.5 51.5t91.5 133.5q0 40 -21 75t-48 58t-74.5 46 t-76.5 33.5t-77 26.5q-16 5 -24 8q-48 17 -75 27t-71 28.5t-70 33t-62 37.5t-57.5 45t-46 52.5t-37.5 63.5t-21.5 74t-8.5 88z" />
<glyph unicode="T" horiz-adv-x="1372" d="M66 1329q0 43 30 74t72 31h1036q43 0 73 -31t30 -74t-30 -72.5t-73 -29.5h-416v-1125q0 -43 -29.5 -72.5t-72.5 -29.5t-72.5 29.5t-29.5 72.5v1125h-416q-43 0 -72.5 29.5t-29.5 72.5z" />
<glyph unicode="U" horiz-adv-x="1517" d="M147 1329q0 46 30.5 75.5t74.5 29.5q68 0 111 -43.5t43 -112.5v-780q0 -117 101.5 -205t223.5 -88h57q119 0 221.5 88t102.5 203v782q0 69 43 112.5t111 43.5q44 0 74 -29.5t30 -75.5q0 -23 -9.5 -47.5t-25.5 -32.5q-18 -11 -18 -35v-714q0 -133 -76 -249.5t-198 -183.5 t-255 -67h-57q-133 0 -255 66.5t-198.5 182t-76.5 247.5v718q0 24 -19 35q-16 8 -25.5 32.5t-9.5 47.5z" />
<glyph unicode="V" horiz-adv-x="1437" d="M94 1284q-9 23 -9 44q-1 34 25 62q40 44 105 44q46 0 83 -28t56 -75l283 -733l80 -240h4l80 240l284 733q20 49 57.5 76t84.5 27q62 0 101 -44q24 -27 24 -61q0 -21 -9 -45q-10 -25 -26 -40t-27 -17l-10 -2q-23 -4 -29 -25l-432 -1124q-9 -34 -36.5 -55t-63.5 -21 q-37 0 -64.5 21t-36.5 55l-432 1124q-6 21 -28 25q-5 0 -12 2t-24.5 17t-27.5 40z" />
<glyph unicode="W" horiz-adv-x="2201" d="M86 1327q0 48 39 77.5t92 29.5q46 -1 82 -29.5t55 -75.5l279 -733l59 -186h2l51 186l254 762q11 34 39.5 55t63.5 21t63 -21t39 -55l254 -762l53 -186h2l58 188l276 731q19 47 55.5 75.5t82.5 29.5q51 0 90.5 -29.5t40.5 -75.5q0 -34 -19 -66t-51 -38q-23 -4 -29 -25 l-415 -1130q-27 -70 -99 -70q-33 0 -60 20.5t-38 53.5l-236 700l-65 219h-4l-66 -221l-235 -698q-11 -33 -38.5 -53.5t-60.5 -20.5q-71 0 -98 70l-418 1130q-6 21 -28 25q-29 0 -49.5 34.5t-20.5 67.5z" />
<glyph unicode="X" horiz-adv-x="1419" d="M113 119q0 39 29.5 69.5t66.5 32.5q24 0 35 17l340 481l-334 473q-6 9 -13 13.5t-9.5 4.5h-12.5q-39 0 -67.5 32t-28.5 73q0 56 42 87.5t93 31.5q76 0 127 -70l211 -299l117 -195h2l116 195l211 299q51 70 127 70q51 0 93 -31.5t42 -87.5q0 -41 -28.5 -73t-67.5 -32h-4 h-4h-3.5t-4 -0.5t-4 -1.5t-4 -2.5l-3.5 -3.5t-4 -4.5t-4 -5.5l-333 -473l340 -481q11 -17 34 -17q37 -1 63.5 -31.5t26.5 -70.5q0 -59 -39 -89t-94 -30q-76 0 -123 68l-215 303l-118 196h-2l-119 -196l-215 -303q-47 -68 -123 -68q-56 0 -97.5 30.5t-41.5 88.5z" />
<glyph unicode="Y" horiz-adv-x="1286" d="M76 1335q5 43 41 73q33 26 80 26h10q82 -8 139 -105l240 -420l55 -131h2l57 131l240 420q57 97 139 105h10q47 0 80 -26q36 -30 41 -73v-7q0 -33 -18 -64q-19 -33 -59 -37q-12 -2 -25 -19l-363 -626v-480q0 -42 -30 -72t-72 -30t-72 30t-30 72v480l-363 626 q-13 17 -24 19q-40 4 -60 37q-18 31 -18 64v7z" />
<glyph unicode="Z" horiz-adv-x="1380" d="M109 1378q2 48 31.5 78.5t76.5 30.5q52 0 80 -35q12 -15 22 -17q5 -1 13 -1h749q67 0 103 -45q25 -32 25 -72t-25 -72l-723 -975l-72 -71v-2l90 6h592q24 0 35 18q10 16 31 25.5t43 9.5q46 0 77 -31t31 -75q0 -70 -43.5 -110t-114.5 -40h-905q-45 0 -76.5 32t-31.5 77 q0 41 24 71l727 981l74 72v2l-92 -6h-582q-70 0 -114.5 41t-44.5 108z" />
<glyph unicode="[" horiz-adv-x="622" d="M164 -78v1450q0 38 27.5 64t66.5 26h195q39 0 66.5 -26t27.5 -64q0 -39 -27.5 -66.5t-66.5 -27.5h-105v-1266h105q38 0 66 -27t28 -65t-27.5 -64t-66.5 -26h-195q-41 0 -67.5 26t-26.5 66z" />
<glyph unicode="\" horiz-adv-x="876" d="M-41 1548q-21 42 2 87.5t76 45.5q30 0 54 -16.5t36 -44.5l760 -1667q19 -44 -5 -87t-75 -44q-28 -2 -53 14t-37 45z" />
<glyph unicode="]" horiz-adv-x="622" d="M76 -80q0 38 28 65t66 27h100v1266h-100q-39 0 -66.5 27.5t-27.5 66.5q0 38 27.5 64t66.5 26h195q39 0 66.5 -26t27.5 -64v-1450q0 -40 -26.5 -66t-67.5 -26h-195q-39 0 -66.5 26t-27.5 64z" />
<glyph unicode="^" horiz-adv-x="1073" d="M137 923.5q-21 40.5 6 75.5l346 387q18 21 46 21q29 0 47 -21q137 -155 348 -387q17 -23 14 -51q-3 -43 -47 -59.5t-76 16.5l-284 344q-256 -308 -285 -344q-22 -22 -51 -22q-43 0 -64 40.5z" />
<glyph unicode="_" horiz-adv-x="743" d="M-86 -252q0 40 28.5 68t69.5 28h719q41 0 69.5 -28t28.5 -68t-28.5 -68t-69.5 -28h-719q-41 0 -69.5 28t-28.5 68z" />
<glyph unicode="`" horiz-adv-x="1089" d="M297 1446q0 47 30 80t76 33q30 0 54 -21l231 -192q20 -18 24 -43.5t-8 -43t-33 -26.5t-50 6l-275 125q-49 22 -49 82z" />
<glyph unicode="a" horiz-adv-x="1097" d="M55 352q0 90 34 159t93.5 109t131.5 60t155 20q133 0 254 -59q0 76 -15 125.5t-45.5 73.5t-64.5 32.5t-84 8.5q-62 0 -113.5 -7.5t-72.5 -14.5l-21 -7q-19 -7 -37 -7q-28 0 -52 16q-40 26 -40 75q0 36 21 63.5t53 36.5q132 39 252 39q210 0 317 -94.5t107 -269.5v-490 q0 -28 18 -39q4 -2 10 -6.5t15.5 -24.5t9.5 -47q0 -45 -30.5 -74.5t-76.5 -29.5q-63 0 -103.5 34t-41.5 93q-102 -137 -272 -137q-105 0 -195.5 42.5t-148.5 127t-58 192.5zM260 350q0 -77 60 -119.5t139 -42.5q62 0 120.5 23.5t99.5 71.5t44 110v82q-47 33 -103 47.5 t-98 14.5q-51 0 -94.5 -8.5t-83 -28.5t-62 -58t-22.5 -92z" />
<glyph unicode="b" horiz-adv-x="1286" d="M117 102q0 27 9.5 47.5t19.5 27.5l10 7q18 11 18 35v1061q0 24 -18 35q-4 2 -10.5 7t-17.5 25.5t-11 47.5q0 46 32 75t76 29q68 0 111 -43.5t43 -112.5v-458q55 91 149 135.5t179 44.5q111 0 204.5 -43t156 -115.5t97.5 -167.5t35 -200q0 -137 -62.5 -260.5t-177 -201 t-253.5 -77.5q-217 0 -328 166v-10q0 -69 -43 -112.5t-111 -43.5q-45 0 -76.5 28t-31.5 74zM381 528q0 -138 91 -234.5t218 -96.5q125 0 214 96t89 235q0 138 -89 236t-214 98q-135 0 -222 -100t-87 -234z" />
<glyph unicode="c" horiz-adv-x="1085" d="M86 530q0 148 73 273.5t198 198.5t272 73q191 0 327 -112q43 -30 43 -80q0 -44 -30 -74.5t-72 -30.5q-35 0 -63 19q-97 77 -203 77q-140 -1 -241 -103t-101 -241q0 -137 100.5 -238.5t239.5 -101.5q106 0 205 76q28 19 61 19q41 0 72.5 -31.5t31.5 -73.5q0 -44 -43 -78 q-136 -112 -325 -112q-149 0 -274.5 72t-198 196.5t-72.5 271.5z" />
<glyph unicode="d" horiz-adv-x="1280" d="M86 539q0 105 35 200t98 167.5t156.5 115.5t204.5 43q86 0 177 -42.5t146 -133.5v454q0 69 43 112.5t111 43.5q44 0 75 -29t31 -75q0 -27 -9.5 -47t-18.5 -26l-9 -7q-18 -11 -18 -35v-1061q0 -24 18 -35q4 -2 10 -7t16.5 -25.5t10.5 -47.5q0 -46 -31 -75t-75 -29 q-68 0 -111 43.5t-43 112.5v4q-59 -85 -144.5 -127.5t-178.5 -42.5q-139 0 -254 80.5t-177.5 206t-62.5 262.5zM293 528q0 -139 89 -235t214 -96q127 0 218 96.5t91 234.5q0 134 -87 233t-222 99q-125 0 -214 -97t-89 -235z" />
<glyph unicode="e" horiz-adv-x="1175" d="M86 530q0 143 65 267.5t183.5 201t261.5 76.5q141 0 256 -74.5t178.5 -196.5t63.5 -263q0 -42 -31.5 -73.5t-77.5 -31.5h-682q23 -107 111 -179.5t194 -72.5q136 0 256 64q34 18 62 18q45 0 74.5 -26t29.5 -68q0 -28 -14 -54t-43 -40q-90 -49 -172.5 -68.5t-194.5 -19.5 q-147 0 -267 75t-186.5 198.5t-66.5 266.5zM303 594h571q-12 116 -89.5 196t-184.5 80q-111 0 -196.5 -79t-100.5 -197z" />
<glyph unicode="f" horiz-adv-x="702" d="M35 964q0 38 29 69q30 32 83 32h52v68q0 175 81 270.5t246 95.5q26 0 52 -4t56.5 -14.5t49 -34t18.5 -57.5q0 -42 -28 -65.5t-72 -25.5q-16 0 -39.5 3.5t-36.5 3.5q-70 0 -96.5 -41t-26.5 -117v-82h199q49 0 77.5 -32t28.5 -71l1 -1q0 -38 -28 -69q-28 -32 -79 -32h-199 v-704q0 -69 -42.5 -112.5t-110.5 -43.5q-44 0 -75.5 29t-31.5 75q0 27 9.5 47t18.5 27l9 6q19 11 19 35v641h-52q-51 0 -81 32q-31 33 -31 72z" />
<glyph unicode="g" horiz-adv-x="1304" d="M90 578q0 218 133 357.5t350 139.5q251 0 355 -166q0 69 42.5 112.5t110.5 43.5q44 0 75.5 -29t31.5 -75q0 -27 -9 -47t-19 -26l-9 -7q-18 -11 -18 -35v-660q0 -114 -29.5 -205.5t-80 -152t-120.5 -101t-147.5 -58t-165.5 -17.5q-220 0 -393 106q-50 29 -50 86 q0 39 28 68t73 29q13 0 27.5 -5t32 -14t26.5 -12q127 -53 260 -53q148 0 233.5 90.5t85.5 257.5v28q-110 -170 -342 -170q-210 0 -345.5 147.5t-135.5 367.5zM297 563q0 -129 81.5 -212t229.5 -83q151 0 236.5 82t85.5 221q0 145 -85.5 222t-242.5 77q-129 0 -217 -91 t-88 -216z" />
<glyph unicode="h" horiz-adv-x="1310" d="M117 104q0 27 9.5 47t18.5 27l9 6q18 11 18 35v1061q0 24 -18 35q-4 2 -10 7t-16.5 25.5t-10.5 47.5q0 46 31 75t75 29q68 0 111 -43.5t43 -112.5v-423q41 68 127 106.5t162 38.5q230 0 351.5 -123t121.5 -371v-352q0 -24 18 -35q4 -2 10 -7t16.5 -25.5t10.5 -47.5 q0 -46 -31.5 -75t-75.5 -29q-68 0 -110.5 43.5t-42.5 112.5v428q0 129 -76 203.5t-205 74.5q-112 0 -194 -80t-82 -188v-438q0 -69 -43 -112.5t-111 -43.5q-44 0 -75 29t-31 75z" />
<glyph unicode="i" d="M106 961q0 46 31.5 75t75.5 29q68 0 111 -43.5t43 -112.5v-690q0 -24 18 -35q4 -2 10 -7t16.5 -25.5t10.5 -47.5q0 -46 -31.5 -75t-75.5 -29q-68 0 -110.5 43.5t-42.5 112.5v690q0 24 -19 35q-4 2 -10 7t-16.5 25.5t-10.5 47.5zM111 1409q0 53 37.5 90t89.5 37 q54 0 91.5 -37t37.5 -90q0 -54 -37.5 -91.5t-91.5 -37.5q-53 0 -90 37.5t-37 91.5z" />
<glyph unicode="j" horiz-adv-x="552" d="M-47 -246q0 42 28 68t70 26h21q40 0 63 35.5t23 75.5v950q0 69 42.5 112.5t110.5 43.5q44 0 75.5 -29t31.5 -75q0 -27 -9 -47t-19 -26l-9 -7q-19 -11 -19 -35v-891q0 -136 -75 -217q-73 -83 -203 -86h-25q-46 0 -76 29t-30 73zM156 1405q0 55 36 93t91 38q57 0 94 -37.5 t37 -93.5t-37 -92.5t-94 -36.5q-55 0 -91 37t-36 92z" />
<glyph unicode="k" horiz-adv-x="1060" d="M117 104q0 27 9.5 47t18.5 27l9 6q18 11 18 35v1061q0 24 -18 35q-4 2 -10 7t-16.5 25.5t-10.5 47.5q0 46 31 75t75 29q68 0 111 -43.5t43 -112.5v-602l-6 -168l153 168l172 172q20 19 13 39q-2 5 -3.5 13t4.5 30t25 41q29 29 74 29q49 0 82 -29q48 -45 48 -105 q0 -65 -52 -116l-271 -272l234 -301q17 -21 39 -21h7q37 0 69 -37q24 -31 24 -66q0 -6 -1 -14q-6 -42 -38 -71q-42 -33 -94 -33q-73 0 -127 66l-258 331l-94 -94v-147q0 -69 -43 -112.5t-111 -43.5q-44 0 -75 29t-31 75z" />
<glyph unicode="l" d="M106 1395q0 46 31.5 75t75.5 29q68 0 111 -43.5t43 -112.5v-1124q0 -24 18 -35q4 -2 10 -7t16.5 -25.5t10.5 -47.5q0 -46 -31.5 -75t-75.5 -29q-68 0 -110.5 43.5t-42.5 112.5v1124q0 24 -19 35q-4 2 -10 7t-16.5 25.5t-10.5 47.5z" />
<glyph unicode="m" horiz-adv-x="1947" d="M117 104q0 27 9.5 47t18.5 27l9 6q18 11 18 35v627q0 24 -18 35q-4 2 -10 7t-16.5 25.5t-10.5 47.5q0 46 31 75t75 29q65 0 107.5 -39.5t46.5 -103.5q41 63 127 103t162 40q80 0 145.5 -17t101.5 -41t61 -48t34 -41l8 -17q47 72 129 118t192 46q203 0 321 -120t118 -337 v-389q0 -24 18 -35q4 -2 10 -7t16.5 -25.5t10.5 -47.5q0 -46 -31.5 -75t-75.5 -29q-68 0 -110.5 43.5t-42.5 112.5v489q0 4 -0.5 12t-5.5 30.5t-14 42.5t-28 45t-45 43t-68.5 30t-94.5 12q-107 0 -176.5 -74.5t-69.5 -189.5v-490q0 -42 -29.5 -74t-72.5 -32t-74 32t-31 74 v539q0 34 -14 69.5t-41.5 69t-77.5 55t-115 21.5h-8q-105 -4 -165.5 -71.5t-63.5 -178.5v-454q0 -69 -43 -112.5t-111 -43.5q-44 0 -75 29t-31 75z" />
<glyph unicode="n" horiz-adv-x="1308" d="M117 104q0 27 9.5 47t18.5 27l9 6q18 11 18 35v627q0 24 -18 35q-4 2 -10 7t-16.5 25.5t-10.5 47.5q0 46 31 75t75 29q63 0 104.5 -37.5t47.5 -99.5q50 61 135 104t158 43q245 0 357 -120.5t112 -374.5v-361q0 -24 18 -35q4 -2 10 -7t16.5 -25.5t10.5 -47.5 q0 -46 -31.5 -75t-75.5 -29q-68 0 -110.5 43.5t-42.5 112.5v436q0 130 -75.5 204t-203.5 74q-114 0 -195 -82.5t-81 -185.5v-446q0 -69 -43 -112.5t-111 -43.5q-44 0 -75 29t-31 75z" />
<glyph unicode="o" horiz-adv-x="1257" d="M86 532q0 147 73.5 272t198.5 198t271 73q147 0 272 -73t197.5 -198t72.5 -272q0 -146 -72.5 -271t-197.5 -198t-272 -73q-146 0 -271 73t-198.5 198t-73.5 271zM291 532q0 -139 99 -238t239 -99t239 99t99 238q0 141 -99 239.5t-239 98.5t-239 -98.5t-99 -239.5z" />
<glyph unicode="p" horiz-adv-x="1280" d="M117 -244q0 27 9.5 47t18.5 27l9 6q18 11 18 35v975q0 24 -18 35q-4 2 -10 7t-16.5 25.5t-10.5 47.5q0 46 31 75t75 29q68 0 111 -43.5t43 -112.5v-2q59 85 143.5 126.5t179.5 41.5q140 0 254 -74t177 -199.5t63 -275.5q0 -105 -35 -200t-98 -167.5t-156.5 -115.5 t-204.5 -43q-86 0 -177 42.5t-146 133.5v-369q0 -69 -43 -112t-111 -43q-44 0 -75 29t-31 75zM375 537q0 -134 87 -233t222 -99q125 0 214 97t89 235q0 151 -87 241t-216 90q-127 0 -218 -96.5t-91 -234.5z" />
<glyph unicode="q" horiz-adv-x="1280" d="M86 526q0 150 63 275.5t177 199.5t254 74q94 0 179 -42t144 -128v4q0 69 43 112.5t111 43.5q44 0 75 -29t31 -75q0 -27 -9.5 -47t-18.5 -26l-9 -7q-18 -11 -18 -35v-975q0 -24 18 -35q4 -2 10 -7t16.5 -25.5t10.5 -47.5q0 -46 -31 -75t-75 -29q-68 0 -111 43t-43 112v369 q-25 -49 -66 -85t-87 -55t-88.5 -27.5t-81.5 -8.5q-111 0 -204.5 43t-156.5 115.5t-98 167.5t-35 200zM293 537q0 -138 89 -235t214 -97q135 0 222 99t87 233q0 138 -91 234.5t-218 96.5q-129 0 -216 -90t-87 -241z" />
<glyph unicode="r" horiz-adv-x="878" d="M117 104q0 27 9.5 47t18.5 27l9 6q18 11 18 35v627q0 24 -18 35q-4 2 -10 7t-16.5 25.5t-10.5 47.5q0 46 31 75t75 29q61 0 102.5 -38t49.5 -99q36 60 100 97.5t127 39.5q103 0 174 -35q34 -18 48 -52q9 -22 8 -43q0 -13 -2 -25q-8 -34 -34.5 -58.5t-64.5 -24.5 q-10 0 -20.5 2.5t-15.5 4.5l-5 2q-50 24 -110 24q-16 0 -34.5 -3t-50.5 -18t-56.5 -40t-43 -77t-18.5 -122v-444q0 -69 -43 -112.5t-111 -43.5q-44 0 -75 29t-31 75z" />
<glyph unicode="s" horiz-adv-x="911" d="M76 768q0 74 34.5 134t90.5 97t123 56.5t137 19.5q157 0 274 -88q41 -30 41 -78q0 -45 -28.5 -73.5t-71.5 -28.5q-30 0 -55 14q-85 51 -175 51q-27 0 -52.5 -5t-52 -15.5t-42.5 -33t-16 -52.5q0 -78 149 -125q63 -20 107.5 -37t103 -48.5t94.5 -65t62 -84t26 -109.5 q0 -74 -37 -134t-97 -97t-130.5 -56.5t-142.5 -19.5q-51 0 -105.5 9t-107.5 28t-87 53.5t-34 79.5q0 40 28.5 71t67.5 31q31 0 66 -22q67 -47 180 -47q29 0 57 4t60.5 14.5t52.5 34t20 57.5q0 26 -12 48t-27 35.5t-45 27.5t-47.5 20t-54.5 17q-54 16 -97.5 33t-94 45t-84 60 t-56 78.5t-22.5 100.5z" />
<glyph unicode="t" horiz-adv-x="831" d="M76 1033q30 32 80 32h53v88q0 24 -19 35q-4 2 -10 7t-16 25.5t-10 47.5q0 46 31 75t75 29q68 0 111 -43t43 -112v-152h213q50 0 78.5 -32t28.5 -70.5t-28.5 -70.5t-78.5 -32h-213v-448q0 -209 129 -209q43 0 102 18q28 8 52 5t39.5 -16t26 -31t11.5 -40v-6q0 -19 -5 -37 q-6 -20 -23.5 -38t-43.5 -29q-68 -29 -163 -29q-172 0 -251 110t-79 300v450h-53q-52 0 -82 32q-29 31 -29 68q0 40 31 73z" />
<glyph unicode="u" horiz-adv-x="1308" d="M117 961q0 46 31 75t75 29q68 0 111 -43.5t43 -112.5v-393q0 -156 68.5 -233.5t228.5 -77.5q116 0 187 69t71 187v448q0 69 42.5 112.5t110.5 43.5q44 0 75.5 -29t31.5 -75q0 -27 -9 -47t-19 -26l-9 -7q-18 -11 -18 -35v-627q0 -24 18 -35q4 -2 10 -7t16.5 -25.5 t10.5 -47.5q0 -46 -31.5 -75t-75.5 -29q-67 0 -107 41t-40 106q-33 -66 -120 -106.5t-163 -40.5q-255 0 -369 128.5t-114 387.5v330q0 24 -18 35q-4 2 -10 7t-16.5 25.5t-10.5 47.5z" />
<glyph unicode="v" horiz-adv-x="1134" d="M84 915q-9 23 -9 44q-1 35 25 63q40 44 105 43q46 0 83 -27.5t56 -74.5l139 -367l78 -238h2l80 238l141 367q20 49 58 75.5t86 26.5q62 0 101 -44q24 -27 24 -61q0 -21 -9 -45q-10 -25 -26 -40t-26 -17l-11 -2q-23 -4 -29 -25l-288 -755q-13 -34 -39.5 -55t-61.5 -21 t-61 21t-39 55l-287 755q-6 21 -29 25q-4 0 -11.5 2t-24.5 17t-27 40z" />
<glyph unicode="w" horiz-adv-x="1814" d="M90 915q-9 23 -9 44q-1 35 25 63q40 44 105 43q46 0 83 -27.5t56 -74.5l142 -367l83 -250h3l81 250l150 399q12 34 38 52t60 18t60.5 -18t38.5 -52l149 -399l82 -250h2l84 250l141 367q19 47 56.5 74.5t83.5 27.5q64 1 104 -43q25 -27 25 -62q0 -21 -9 -45 q-10 -25 -26 -40t-26 -17l-11 -2q-23 -4 -29 -25l-297 -761q-12 -30 -40 -50t-62 -20q-32 0 -59 20t-39 52l-228 585l-227 -585q-12 -32 -39 -52t-59 -20q-34 0 -62.5 20t-40.5 50l-297 761q-6 21 -28 25q-5 0 -12 2t-24.5 17t-27.5 40z" />
<glyph unicode="x" horiz-adv-x="1163" d="M111 115q-1 43 25 75q25 32 65 31h2q22 0 35 17l217 294l-213 291q-15 19 -35 19q-39 0 -67.5 31.5t-28.5 72.5q0 51 43 85t92 34q76 0 127 -70l151 -209l58 -92l57 92l152 209q51 70 127 70q49 0 92 -34t43 -85q0 -40 -29 -72t-68 -32q-19 0 -34 -19l-213 -291l217 -294 q13 -17 35 -17h2q39 1 65 -31t25 -75q0 -50 -41.5 -82.5t-93.5 -32.5q-71 0 -123 68l-158 211l-55 92l-56 -92l-157 -211q-52 -68 -123 -68q-52 0 -93.5 32.5t-41.5 82.5z" />
<glyph unicode="y" horiz-adv-x="1208" d="M84 913q-9 23 -9 44q0 35 25 63q41 43 105 43q46 0 83 -27.5t56 -74.5l180 -467l74 -248h6l80 248l180 467q20 49 58 75.5t86 26.5q62 0 101 -44q24 -27 24 -61q0 -21 -9 -45q-10 -25 -26 -40t-26 -17l-11 -2q-23 -4 -29 -25l-311 -804q-142 -373 -365 -373 q-70 0 -168 37q-29 10 -47 38t-18 58q0 53 45 82q24 16 51 16q21 0 43 -10q50 -20 86 -20q84 0 146 127l8 18l-23 55l-303 776q-6 21 -29 25q-4 0 -11.5 2t-24.5 17t-27 40z" />
<glyph unicode="z" horiz-adv-x="1052" d="M88 1012q0 44 29.5 76t75.5 32q17 0 31.5 -4t23 -9t14.5 -10.5t8 -9.5l2 -4q11 -18 35 -18h506q47 0 81 -30.5t38 -70.5q1 -6 1 -11q0 -35 -22 -70l-458 -613l-72 -73v-2l90 8h293q24 0 35 18q2 4 7 10t25.5 16.5t47.5 10.5q46 0 76 -31t30 -75q0 -67 -44.5 -109.5 t-113.5 -42.5h-600q-48 0 -79 30q-33 32 -33 75q0 38 22 75l461 615l72 69v2l-90 -4h-336q-69 0 -112.5 41.5t-43.5 108.5z" />
<glyph unicode="{" horiz-adv-x="694" d="M76 692q1 41 31 69.5t73 31.5q64 4 64 47q-4 28 -17.5 99t-20.5 127t-7 112q0 82 14.5 135.5t50.5 93.5q75 88 248 96h8q41 0 71.5 -28.5t31.5 -69.5v-8q0 -41 -29 -71.5t-70 -33.5q-112 -5 -112 -143q0 -59 23.5 -175.5t23.5 -150.5q0 -14 -4.5 -30t-16.5 -39t-41 -40 t-71 -22q42 -5 71 -22t41 -40t16.5 -39t4.5 -30q0 -34 -23.5 -150t-23.5 -175q0 -139 112 -144q41 -3 70 -33t29 -71v-8q-1 -41 -31.5 -70t-71.5 -29h-8q-173 8 -248 96q-36 40 -50.5 94t-14.5 136q0 56 7 112t20.5 127t17.5 99q0 43 -64 47q-43 3 -73 31t-31 69z" />
<glyph unicode="|" horiz-adv-x="606" d="M211 -219v1763q0 39 26.5 66.5t65.5 27.5q38 0 65 -28t27 -66v-1763q0 -38 -27 -66t-65 -28q-39 0 -65.5 27.5t-26.5 66.5z" />
<glyph unicode="}" horiz-adv-x="694" d="M72 -12q0 41 28.5 71t69.5 33q113 5 113 144q0 59 -23.5 175t-23.5 150q0 14 4.5 30t16.5 39t41 40t71 22q-42 5 -71 22t-41 40t-16.5 39t-4.5 30q0 34 23.5 150.5t23.5 175.5q0 138 -113 143q-41 3 -69.5 33.5t-28.5 71.5v8q1 41 31 69.5t71 28.5h8q173 -8 248 -96 q36 -40 51 -94t15 -135q0 -56 -7 -112t-20.5 -127t-17.5 -99q0 -43 63 -47q43 -3 73 -31.5t31 -69.5q-1 -41 -31 -69t-73 -31q-63 -4 -63 -47q4 -28 17.5 -99t20.5 -127t7 -112q0 -81 -15 -135.5t-51 -94.5q-75 -88 -248 -96h-8q-41 0 -70.5 29t-31.5 70v8z" />
<glyph unicode="~" horiz-adv-x="1140" d="M141.5 580q-8.5 29 1.5 53q33 87 105.5 147t152.5 60q74 0 152 -45q11 -7 63 -41.5t87 -51t65 -16.5q18 0 33.5 9.5t29.5 30.5t19 30.5t16 31.5q9 19 27.5 31t38.5 12q49 0 65 -40q13 -32 -10 -78q-40 -78 -90 -125t-125 -47q-58 0 -105.5 21t-101.5 61q-38 24 -59 36 t-49.5 22.5t-53.5 10.5q-41 0 -77.5 -35t-49.5 -79q-11 -30 -41 -42t-61 3q-24 12 -32.5 41z" />
<glyph unicode="&#xa1;" horiz-adv-x="610" d="M154 831q0 63 44 107.5t107 44.5t107.5 -44.5t44.5 -107.5t-44.5 -108t-107.5 -45t-107 45t-44 108zM176 -346l47 854q1 42 25 66t57 24t57 -24t27 -66q47 -850 47 -854q0 -52 -38.5 -83.5t-90.5 -31.5q-55 0 -93 31t-38 84z" />
<glyph unicode="&#xa2;" horiz-adv-x="1101" d="M86 530q0 209 137 365t340 184v117q0 28 19.5 47t48.5 19q28 0 46.5 -19t18.5 -47v-113q157 -15 277 -112q43 -30 43 -82q0 -44 -30.5 -75.5t-72.5 -31.5q-40 0 -67 21q-66 51 -150 67v-675q85 17 150 67q28 19 65 19q42 0 73.5 -31.5t31.5 -73.5t-43 -82 q-116 -94 -277 -110v-127q0 -28 -18.5 -47t-46.5 -19q-29 0 -48.5 19t-19.5 47v129q-203 28 -340 183t-137 361zM297 530q0 -119 75.5 -212t190.5 -119v665q-116 -26 -191 -119.5t-75 -214.5z" />
<glyph unicode="&#xa3;" horiz-adv-x="1161" d="M98 680q0 28 19 46.5t45 18.5h41v228q0 130 63.5 241t177.5 170q93 51 197 50t197 -52q109 -61 172 -171.5t63 -237.5q0 -43 -30.5 -73t-71.5 -30q-43 0 -73 30t-30 73q0 72 -35.5 135.5t-97.5 95.5q-95 51 -192 2q-62 -33 -97.5 -97t-35.5 -136v-228h430 q26 0 44.5 -18.5t18.5 -46.5q0 -27 -18.5 -46.5t-44.5 -19.5h-430v-350q0 -51 -13 -59h578q42 0 72 -30.5t30 -72.5q0 -43 -29.5 -73.5t-72.5 -30.5h-754q-43 0 -73.5 30.5t-30.5 71.5q0 32 17.5 58.5t45.5 38.5q23 7 23 34v383h-41q-26 0 -45 20t-19 46z" />
<glyph unicode="&#xa5;" horiz-adv-x="1263" d="M73.5 1338q6.5 43 41.5 69q40 25 75 27q42 4 83 -18.5t63 -61.5l295 -508l297 508q24 39 64 61.5t85 18.5q39 -3 70 -24t41 -56q15 -48 -12 -92q-23 -36 -70 -43q-16 0 -29 -19l-334 -567h195q28 0 47 -20t19 -48q0 -27 -19 -46t-47 -19h-203v-115h203q28 0 47 -19 t19 -47q0 -27 -19 -46t-47 -19h-203v-160q0 -41 -31 -70.5t-73 -29.5t-72.5 29.5t-30.5 70.5v160h-200q-29 0 -48.5 19t-19.5 46q0 28 19.5 47t48.5 19h200v115h-200q-29 0 -48.5 19t-19.5 46q0 28 19.5 48t48.5 20h192l-332 567q-10 19 -28 19q-41 7 -68 41 q-25 35 -18.5 78z" />
<glyph unicode="&#xa7;" horiz-adv-x="1239" d="M96 524q0 85 50 154.5t130 118.5q-76 38 -124 103.5t-54 146.5v18q4 94 53 167.5t126 116t163 64t174 21.5q186 0 338 -82q41 -24 51.5 -71t-14.5 -83q-24 -36 -68.5 -45t-74.5 12q-93 56 -232 56q-38 0 -84.5 -7.5t-98 -24t-86 -49t-34.5 -75.5q0 -47 56 -76 q63 -35 142 -57.5t176 -42t151 -35.5q307 -91 307 -336q0 -161 -195 -272q91 -46 139 -119t48 -154q0 -77 -37.5 -141t-96 -105.5t-133 -70t-144.5 -41t-134 -12.5q-201 0 -357 84q-47 23 -54.5 72.5t22.5 89.5t78 40q36 0 57 -16q106 -57 254 -57q38 0 90 8.5t109.5 25 t97 49t39.5 74.5q-3 49 -66 78q-73 40 -178.5 65t-217 54.5t-202.5 81.5q-77 44 -121.5 115t-44.5 157zM309 518q0 -34 32.5 -64t78.5 -47.5t92 -27.5t78 -10q35 0 85 7t109.5 22t100.5 46.5t41 73.5q0 40 -37 71t-90.5 47.5t-102 25t-82.5 8.5q-36 0 -83 -7.5t-99.5 -23.5 t-87.5 -47.5t-35 -73.5z" />
<glyph unicode="&#xa8;" horiz-adv-x="1208" d="M236 1362q0 54 40 92.5t97 38.5t97 -38.5t40 -92.5q0 -55 -40 -94t-97 -39t-97 39t-40 94zM698 1362q0 54 40.5 92.5t97.5 38.5t97 -38.5t40 -92.5q0 -55 -40 -94t-97 -39t-97.5 39t-40.5 94z" />
<glyph unicode="&#xa9;" horiz-adv-x="1581" d="M72 719q0 117 36.5 226.5t103 198t154.5 155t198 103t227 36.5q146 0 279 -57t229 -153.5t153 -229.5t57 -279t-57 -279t-153.5 -230t-229.5 -154.5t-278 -57.5q-146 0 -279.5 57.5t-229.5 154t-153 230t-57 279.5zM141 719q0 -133 51.5 -253.5t139 -207.5t207.5 -138.5 t252 -51.5q176 0 325.5 87.5t236.5 237.5t87 326q0 175 -87.5 324.5t-237 237t-324.5 87.5t-325 -87.5t-237.5 -237t-87.5 -324.5zM428 719q0 158 113.5 267.5t265.5 109.5q93 0 176 -45q35 -15 35 -56q0 -26 -19 -45.5t-45 -19.5q-17 0 -30 8q-54 29 -117 29 q-102 0 -176 -72t-74 -178q0 -98 73.5 -173t174.5 -75q69 0 133 39q19 15 48 9.5t42 -28.5q13 -21 8.5 -48.5t-28.5 -41.5q-89 -59 -201 -59q-97 0 -184 49.5t-141 138t-54 191.5z" />
<glyph unicode="&#xaa;" horiz-adv-x="839" d="M82 567q0 29 19.5 48.5t50.5 19.5h512q29 0 47 -19t18 -49q0 -29 -18 -48t-47 -19h-512q-31 0 -50.5 19t-19.5 48zM109 954q0 138 92.5 213.5t236.5 75.5q60 0 135 -14q0 119 -133 119q-67 0 -168 -33q-32 -10 -54.5 10t-22.5 47q0 51 51 72q88 31 194 31q52 -1 96 -15.5 t81 -45.5t58 -85.5t21 -128.5v-364q12 -9 22.5 -25.5t10.5 -28.5q0 -27 -17 -45t-44 -18q-31 0 -49.5 11.5t-30.5 37.5q-86 -53 -197 -53q-122 0 -202 60t-80 179zM238 954q0 -58 44.5 -87t108.5 -29q69 0 125.5 40.5t56.5 104.5v115q-88 18 -139 18q-86 0 -141 -39 t-55 -123z" />
<glyph unicode="&#xab;" horiz-adv-x="1259" d="M76 532q0 33 24 64l389 418q30 30 70 30q55 -2 82 -49.5t-10 -103.5l-314 -359l314 -358q23 -31 22.5 -65t-26.5 -61.5t-64 -27.5q-43 0 -74 31l-389 420q-24 24 -24 61zM580 532q0 39 22 64l389 418q27 30 72 30q37 0 65.5 -26t28.5 -64q0 -32 -24 -63l-314 -359 q247 -283 314 -358q20 -28 21 -62.5t-23.5 -63t-63.5 -28.5q-45 0 -76 31l-389 420q-22 22 -22 61z" />
<glyph unicode="&#xad;" horiz-adv-x="942" d="M98 569q0 42 28.5 71.5t68.5 29.5h548q41 0 71 -27.5t30 -67.5q0 -42 -27.5 -72t-66.5 -30h-551q-40 0 -70.5 28.5t-30.5 67.5z" />
<glyph unicode="&#xae;" horiz-adv-x="980" d="M33 981q0 191 134.5 325t324.5 134q189 0 322.5 -134.5t133.5 -324.5q0 -123 -61.5 -228.5t-166.5 -167t-228 -61.5q-190 0 -324.5 134t-134.5 323zM86 981q0 -167 119 -285t287 -118q111 0 204 55q62 40 103 86q96 114 96 262q0 167 -118.5 286t-284.5 119 q-167 0 -286.5 -119t-119.5 -286zM311 776q0 14 8 25q9 9 9 22v318q0 11 -9 20q-8 11 -8 27q0 18 12 31.5t31 13.5h133q63 0 107.5 -45t44.5 -107q0 -69 -53 -116l73 -134q5 -10 17 -16q19 -6 22 -29v-8q0 -18 -16 -31.5t-35 -13.5h-8q-31 5 -45 37l-90 160q-2 0 -7 -1 t-8 -1h-73v-129q0 -30 -21 -51q-17 -17 -41 -17q-19 0 -31 13.5t-12 31.5zM416 1016h71q27 0 45.5 19t18.5 46q0 26 -19 45t-45 19h-71v-129z" />
<glyph unicode="&#xaf;" horiz-adv-x="925" d="M156 1292q0 31 23.5 54.5t56.5 23.5h454q32 0 56 -23.5t24 -54.5q0 -33 -23.5 -55.5t-56.5 -22.5h-454q-34 0 -57 22t-23 56z" />
<glyph unicode="&#xb0;" horiz-adv-x="665" d="M115 1231q0 91 64 155t155 64t154 -64t63 -155t-64 -155t-153 -64q-91 0 -155 64t-64 155zM258 1231q0 -31 22 -53.5t54 -22.5q31 0 54.5 22.5t23.5 53.5q0 30 -23.5 52t-54.5 22q-32 0 -54 -21.5t-22 -52.5z" />
<glyph unicode="&#xb1;" horiz-adv-x="1040" d="M115 184q0 40 28.5 68.5t69.5 28.5h614q41 0 70 -28.5t29 -68.5t-29 -68t-70 -28h-614q-41 0 -69.5 28t-28.5 68zM121 776q0 41 29 71t67 30h205v202q0 40 28.5 70.5t67.5 30.5q41 0 70.5 -28.5t29.5 -68.5v-206h203q40 0 70.5 -28t30.5 -69q0 -40 -28 -70t-69 -30h-207 v-203q0 -40 -27.5 -70t-66.5 -30q-41 0 -71.5 28t-30.5 68v207h-201q-42 0 -71 27.5t-29 68.5z" />
<glyph unicode="&#xb2;" horiz-adv-x="843" d="M80 604q0 47 16.5 90.5t37.5 73.5t62 65t66.5 53t73.5 50q8 5 38.5 25t45 30.5t40 32t38.5 38t23.5 39.5t10.5 46q0 61 -47 92t-106 31q-93 0 -129 -68q-22 -43 -68 -43t-70 41t-3 80q38 79 109.5 116.5t160.5 37.5q125 0 214 -68t101 -190v-29q0 -68 -30.5 -123.5 t-81 -96t-104 -75t-112.5 -79.5t-94 -91h357q33 0 56.5 -23.5t23.5 -54.5q0 -35 -23 -58.5t-57 -23.5h-465q-35 0 -59.5 23.5t-24.5 58.5z" />
<glyph unicode="&#xb3;" horiz-adv-x="772" d="M33 803q0 37 23 62.5t59 25.5t61 -25t25 -61q4 -56 56 -89.5t112 -33.5q63 0 114.5 32t55.5 89q4 63 -41.5 92t-114.5 29q-37 0 -62.5 24.5t-25.5 57.5q0 36 24 61t60 25q42 0 79.5 23t37.5 63t-40 65t-87 25q-91 0 -127 -68q-25 -43 -74 -43q-42 0 -69.5 39t-6.5 84 q34 75 110.5 114.5t172.5 39.5q107 -3 194 -68q46 -38 71.5 -87.5t25.5 -98.5q0 -38 -21.5 -85t-52.5 -75q50 -31 83.5 -92.5t33.5 -124.5q0 -84 -51.5 -151t-128 -100.5t-158.5 -33.5q-83 0 -159 33t-127.5 100t-51.5 152z" />
<glyph unicode="&#xb4;" horiz-adv-x="1089" d="M377.5 1302.5q3.5 25.5 23.5 43.5l232 192q24 21 53 21q46 0 76.5 -33t30.5 -80q0 -59 -50 -82l-274 -125q-29 -15 -50 -6t-33 26.5t-8.5 43z" />
<glyph unicode="&#xb5;" horiz-adv-x="1277" d="M106 -244q0 27 9 47t19 27l9 6q19 11 19 35v973q0 24 -19 35q-4 2 -10 6.5t-16.5 25t-10.5 47.5q0 46 31.5 75.5t75.5 29.5q68 0 111 -43.5t43 -112.5v-411q0 -150 72 -220.5t225 -70.5q115 0 186.5 73.5t71.5 192.5v436q0 69 42.5 112.5t110.5 43.5q44 0 75.5 -29.5 t31.5 -75.5q0 -17 -4 -31.5t-9 -23t-10.5 -14.5t-9.5 -8l-4 -2q-19 -11 -19 -35v-625q0 -24 19 -35q4 -2 10 -7t16.5 -25.5t10.5 -47.5q0 -46 -31.5 -75t-75.5 -29q-61 0 -102 35t-49 92q-70 -80 -167.5 -110t-199.5 -7t-190 92v-295q0 -69 -43 -112t-111 -43 q-44 0 -75.5 29t-31.5 75z" />
<glyph unicode="&#xb6;" horiz-adv-x="1136" d="M72 1012q0 173 124.5 297.5t297.5 124.5h383q43 0 73.5 -31t30.5 -74q0 -32 -18 -57t-48 -37q-20 -10 -20 -35v-991q0 -17 12 -29q33 -30 33 -78q0 -43 -28.5 -72.5t-71.5 -29.5q-57 0 -103 43q-49 52 -49 133v414h-207q-110 0 -204.5 58t-149.5 155.5t-55 208.5z" />
<glyph unicode="&#xb7;" horiz-adv-x="563" d="M131 608q0 63 44 107.5t106 44.5q63 0 107 -44.5t44 -107.5q0 -62 -44 -105.5t-107 -43.5q-62 0 -106 44t-44 105z" />
<glyph unicode="&#xb8;" horiz-adv-x="1130" d="M311 -285q0 25 19 45.5t45 20.5q23 0 43 -17q33 -30 84 -30q39 0 66.5 16t27.5 49q0 53 -94 64q-27 3 -44.5 21t-17.5 42q0 11 27 109q1 5 4 13t17.5 21t35.5 13q22 0 42 -11.5t16 -33.5l-19 -90q89 0 137 -42t48 -118q0 -90 -71 -138t-167 -48q-111 0 -180 69 q-19 19 -19 45z" />
<glyph unicode="&#xb9;" horiz-adv-x="679" d="M125 598q0 29 22.5 50.5t51.5 21.5h82v528l-31 -27q-32 -33 -78.5 -14.5t-46.5 68.5q0 35 27 59l153 131q25 19 53 19q31 0 52.5 -19.5t21.5 -52.5v-692h92q31 0 52.5 -21.5t21.5 -50.5q0 -31 -21.5 -52.5t-52.5 -21.5h-325q-30 0 -52 22t-22 52z" />
<glyph unicode="&#xba;" horiz-adv-x="894" d="M59 567q0 30 19 49t49 19h625q30 0 47.5 -19t17.5 -49t-17.5 -48.5t-47.5 -18.5h-625q-31 0 -49.5 19t-18.5 48zM61 1106q0 160 113.5 271.5t274.5 111.5t274 -111.5t113 -271.5q0 -163 -113 -279t-274 -116t-274.5 116t-113.5 279zM201 1106q0 -105 73.5 -177.5 t174.5 -72.5q99 0 171 72.5t72 177.5q0 95 -72.5 165t-170.5 70q-100 0 -174 -70t-74 -165z" />
<glyph unicode="&#xbb;" horiz-adv-x="1257" d="M100 954q0 38 29 64t66 26q44 0 71 -30l389 -418q23 -26 23 -64t-23 -61l-389 -420q-27 -30 -64.5 -32t-66.5 22q-31 25 -32.5 66.5t22.5 66.5q7 8 313 358l-313 359q-25 32 -25 63zM604 952q0 41 28 66.5t66 25.5q43 0 70 -30l389 -418q25 -32 25 -64q0 -36 -25 -61 l-389 -420q-26 -29 -65.5 -32t-67.5 22q-28 28 -30.5 66.5t22.5 66.5l313 358l-313 359q-23 26 -23 61z" />
<glyph unicode="&#xbc;" horiz-adv-x="1904" d="M158 598q0 29 22 50.5t51 21.5h82v528l-30 -27q-32 -33 -78.5 -14.5t-46.5 68.5q0 36 26 59l154 131q25 19 53 19q31 0 52.5 -19.5t21.5 -52.5v-692h92q31 0 52.5 -21.5t21.5 -50.5q0 -31 -21.5 -52.5t-52.5 -21.5h-326q-29 0 -51 22t-22 52zM579.5 51.5 q-12.5 36.5 2.5 71.5l526 1249q18 39 52 54.5t71 -1.5q35 -15 48.5 -51.5t-1.5 -73.5l-528 -1249q-15 -37 -51.5 -52.5t-71.5 -0.5q-35 17 -47.5 53.5zM1042 289q0 26 23 53l426 537q29 32 63 32q33 0 54.5 -22.5t21.5 -57.5v-462h37q32 0 56 -24t24 -58q0 -32 -24 -55 t-56 -23h-37v-127q0 -34 -22.5 -58t-53.5 -24q-34 0 -57.5 24t-23.5 58v127h-351q-34 0 -57 23t-23 57zM1270 369h203v249z" />
<glyph unicode="&#xbd;" horiz-adv-x="1912" d="M158 598q0 29 22 50.5t51 21.5h82v528l-30 -27q-32 -33 -78.5 -14.5t-46.5 68.5q0 36 26 59l154 131q25 19 53 19q31 0 52.5 -19.5t21.5 -52.5v-692h92q31 0 52.5 -21.5t21.5 -50.5q0 -31 -21.5 -52.5t-52.5 -21.5h-326q-29 0 -51 22t-22 52zM558.5 51.5 q-12.5 36.5 2.5 71.5l526 1249q18 39 52 54.5t71 -1.5q35 -15 48.5 -51.5t-1.5 -73.5l-528 -1249q-15 -37 -51.5 -52.5t-71.5 -0.5q-35 17 -47.5 53.5zM1126 82q0 47 16.5 90.5t37.5 73.5t62 65t66.5 53t73.5 50q4 3 43 28t56 38.5t45 39t40.5 51.5t12.5 54q0 57 -45.5 90 t-108.5 33q-93 0 -129 -68q-22 -43 -67 -43q-46 0 -70 40t-4 81q38 79 109 116t161 37q125 0 214.5 -68t101.5 -190v-28q0 -68 -30.5 -123.5t-81 -96t-104 -75t-112.5 -79.5t-94 -91h356q33 0 56.5 -23.5t23.5 -54.5q0 -35 -23 -58.5t-57 -23.5h-465q-35 0 -59.5 23.5 t-24.5 58.5z" />
<glyph unicode="&#xbe;" horiz-adv-x="2004" d="M158 803q0 37 23 62.5t59 25.5t61 -25t25 -61q4 -56 56 -89.5t112 -33.5q62 0 116 34.5t54 86.5q0 63 -44 92t-112 29q-37 0 -62.5 24.5t-25.5 57.5q0 36 24 61t60 25q42 0 79.5 23t37.5 63t-40 65t-87 25q-91 0 -127 -68q-25 -43 -74 -43q-42 0 -69.5 39.5t-6.5 83.5 q36 76 111.5 115t171.5 39q103 0 194 -68q47 -39 73.5 -88.5t23.5 -97.5q-5 -98 -74 -160q50 -31 83.5 -92.5t33.5 -124.5q0 -84 -51.5 -151t-128 -100.5t-158.5 -33.5q-83 0 -159 33t-127.5 100t-51.5 152zM712.5 51.5q-12.5 36.5 2.5 71.5l526 1249q18 39 52 54.5t71 -1.5 q35 -15 48.5 -51.5t-1.5 -73.5l-528 -1249q-15 -37 -51.5 -52.5t-71.5 -0.5q-35 17 -47.5 53.5zM1143 289q0 27 22 53l426 537q29 32 64 32q28 0 52 -23t24 -57v-462h36q32 0 56 -24t24 -58q0 -32 -24 -55t-56 -23h-36v-127q0 -34 -22.5 -58t-53.5 -24q-34 0 -58 24t-24 58 v127h-350q-34 0 -57 23t-23 57zM1370 369h203v249z" />
<glyph unicode="&#xbf;" horiz-adv-x="845" d="M70 -100q0 157 123 286l73 74q39 36 61 60.5t42 64.5t20 80v35q0 37 25 63t63 31h12q41 0 70 -27t29 -69v-33q0 -119 -66 -219q-22 -34 -65 -81.5t-75 -82t-57.5 -84.5t-25.5 -100q0 -78 46.5 -121t121.5 -43q103 0 184 59q33 24 71 19t62 -33q28 -36 20 -77.5t-40 -68.5 q-125 -96 -295 -96q-163 0 -281 104t-118 259zM336 823q0 63 44 108.5t107 45.5t107.5 -45.5t44.5 -108.5t-44.5 -107t-107.5 -44t-107 44t-44 107z" />
<glyph unicode="&#xc0;" horiz-adv-x="1447" d="M82 113q0 33 19.5 63.5t50.5 34.5q21 4 30 25l39 100l393 1057q13 36 43.5 55.5t67.5 19.5t67.5 -19.5t43.5 -55.5l432 -1157q9 -21 30 -25q31 -3 50.5 -33.5t19.5 -68.5q0 -49 -34.5 -79t-90.5 -30q-48 0 -85.5 26.5t-57.5 75.5l-105 271h-540l-105 -271 q-19 -47 -56 -74.5t-83 -27.5q-58 0 -94 30.5t-35 82.5zM506 553h438l-178 491l-41 142h-2l-41 -144zM514 1823q0 47 30.5 79.5t76.5 32.5q30 0 53 -20l231 -193q20 -18 24 -43t-8 -43t-33 -26.5t-50 6.5l-275 125q-49 22 -49 82z" />
<glyph unicode="&#xc1;" horiz-adv-x="1447" d="M82 113q0 33 19.5 63.5t50.5 34.5q21 4 30 25l39 100l393 1057q13 36 43.5 55.5t67.5 19.5t67.5 -19.5t43.5 -55.5l432 -1157q9 -21 30 -25q31 -3 50.5 -33.5t19.5 -68.5q0 -49 -34.5 -79t-90.5 -30q-48 0 -85.5 26.5t-57.5 75.5l-105 271h-540l-105 -271 q-19 -47 -56 -74.5t-83 -27.5q-58 0 -94 30.5t-35 82.5zM506 553h438l-178 491l-41 142h-2l-41 -144zM517 1679q4 25 24 43l231 193q23 20 53 20q46 0 76.5 -32.5t30.5 -79.5q0 -60 -49 -82l-275 -125q-29 -15 -50 -6.5t-33 26.5t-8 43z" />
<glyph unicode="&#xc2;" horiz-adv-x="1447" d="M82 113q0 33 19.5 63.5t50.5 34.5q21 4 30 25l39 100l393 1057q13 36 43.5 55.5t67.5 19.5t67.5 -19.5t43.5 -55.5l432 -1157q9 -21 30 -25q31 -3 50.5 -33.5t19.5 -68.5q0 -49 -34.5 -79t-90.5 -30q-48 0 -85.5 26.5t-57.5 75.5l-105 271h-540l-105 -271 q-19 -47 -56 -74.5t-83 -27.5q-58 0 -94 30.5t-35 82.5zM460 1681.5q4 20.5 21 36.5l170 172q31 31 72 31t72 -31l170 -172q17 -16 21 -36.5t-3.5 -37t-22 -29.5t-34.5 -13.5t-41 10.5l-162 100l-162 -100q-21 -11 -41 -10.5t-34.5 13.5t-22 29.5t-3.5 37zM506 553h438 l-178 491l-41 142h-2l-41 -144z" />
<glyph unicode="&#xc3;" horiz-adv-x="1447" d="M82 113q0 33 19.5 63.5t50.5 34.5q21 4 30 25l39 100l393 1057q13 36 43.5 55.5t67.5 19.5t67.5 -19.5t43.5 -55.5l432 -1157q9 -21 30 -25q31 -3 50.5 -33.5t19.5 -68.5q0 -49 -34.5 -79t-90.5 -30q-48 0 -85.5 26.5t-57.5 75.5l-105 271h-540l-105 -271 q-19 -47 -56 -74.5t-83 -27.5q-58 0 -94 30.5t-35 82.5zM391 1743q33 74 88.5 120.5t126.5 49.5q38 -1 77.5 -18t65.5 -36t55 -35t50 -16q27 0 47 50q9 21 30.5 34t45.5 13q51 0 75.5 -44t4.5 -87q-81 -150 -193 -150q-34 0 -73 17t-68 37.5t-61 37.5t-54 17q-9 0 -17.5 -5 t-16 -17l-10 -16t-9.5 -18q-27 -55 -82 -55q-44 0 -72.5 41.5t-9.5 79.5zM506 553h438l-178 491l-41 142h-2l-41 -144z" />
<glyph unicode="&#xc4;" horiz-adv-x="1447" d="M82 113q0 33 19.5 63.5t50.5 34.5q21 4 30 25l39 100l393 1057q13 36 43.5 55.5t67.5 19.5t67.5 -19.5t43.5 -55.5l432 -1157q9 -21 30 -25q31 -3 50.5 -33.5t19.5 -68.5q0 -49 -34.5 -79t-90.5 -30q-48 0 -85.5 26.5t-57.5 75.5l-105 271h-540l-105 -271 q-19 -47 -56 -74.5t-83 -27.5q-58 0 -94 30.5t-35 82.5zM354 1739q0 54 40.5 92.5t97.5 38.5t97 -38.5t40 -92.5q0 -55 -40 -94t-97 -39t-97.5 39t-40.5 94zM506 553h438l-178 491l-41 142h-2l-41 -144zM817 1739q0 54 40 92.5t97 38.5t97.5 -38.5t40.5 -92.5 q0 -55 -40.5 -94t-97.5 -39t-97 39t-40 94z" />
<glyph unicode="&#xc5;" horiz-adv-x="1447" d="M82 113q0 33 19.5 63.5t50.5 34.5q21 4 30 25l39 100l393 1036q7 21 19 33v2q-41 23 -66.5 62.5t-25.5 89.5q0 75 57 125.5t125 50.5q73 0 127.5 -49t54.5 -127q0 -104 -88 -154q15 -25 19 -33l432 -1136q9 -21 30 -25q31 -3 50.5 -33.5t19.5 -68.5q0 -48 -37 -78.5 t-88 -30.5q-48 0 -85.5 26.5t-57.5 75.5l-105 271h-540l-105 -271q-19 -47 -56 -74.5t-83 -27.5q-55 0 -92.5 31t-36.5 82zM506 553h438l-178 471l-41 141h-2l-41 -143zM621 1559q0 -43 31 -71t71 -28t72 27t32 72q0 44 -31 71t-73 27q-39 0 -70.5 -28t-31.5 -70z" />
<glyph unicode="&#xc6;" horiz-adv-x="1906" d="M80 102q0 34 23 63t57 36q11 3 16.5 10t16.5 29l610 1138v-2q14 26 38 42t52 16h825q42 0 73.5 -30.5t31.5 -70.5q0 -42 -31 -72t-74 -30h-676v-430h566q42 0 70 -29.5t28 -71.5t-28 -72t-70 -30h-566v-350q0 -12 -4 -22.5t-8 -14.5l-4 -4h696q46 0 72.5 -32.5t27 -71 t-26 -71t-73.5 -32.5h-833q-43 0 -76 30.5t-33 71.5q0 56 45 86q15 10 15 35v148h-353q-68 -129 -114 -221q-16 -32 -30 -53t-36.5 -46t-52.5 -38t-66 -13q-44 0 -76 28.5t-32 73.5zM569 551h271v491z" />
<glyph unicode="&#xc7;" horiz-adv-x="1345" d="M106 719q0 147 56.5 282t153.5 234.5t235.5 159t294.5 59.5q187 0 348 -88q55 -27 55 -90q0 -44 -31 -74.5t-73 -30.5q-23 0 -49 13q-122 61 -250 61q-148 0 -271 -72t-192.5 -193t-69.5 -261q0 -144 73 -266.5t196.5 -193.5t265.5 -71q152 0 280 84q26 17 56 17 q43 0 74.5 -31.5t31.5 -75.5q0 -56 -47 -86q-164 -106 -373 -116l-6 -33q89 0 137 -42t48 -118q0 -90 -71 -138t-167 -48q-111 0 -180 69q-19 19 -19 45q0 25 19 45.5t45 20.5q23 0 43 -17q33 -30 84 -30q39 0 66.5 16t27.5 49q0 53 -94 64q-27 3 -44.5 21t-17.5 42 q0 7 13 60q-180 21 -328.5 124.5t-234 264t-85.5 344.5z" />
<glyph unicode="&#xc8;" horiz-adv-x="1302" d="M176 102q0 56 45 86q15 10 15 35v987q0 25 -15 35q-45 30 -45 86q0 41 33 72t76 31h794q43 0 74 -31t31 -74q0 -42 -31 -72t-74 -30h-655q16 -14 16 -41v-385h527q47 0 73.5 -32t26 -70.5t-27 -70.5t-72.5 -32h-527v-348q0 -12 -4 -22.5t-8 -14.5l-4 -4h694 q46 0 72.5 -32.5t27 -71t-26 -71t-73.5 -32.5h-833q-43 0 -76 30.5t-33 71.5zM469 1823q0 47 30 79.5t76 32.5q31 0 54 -20l231 -193q20 -18 24 -43t-8 -43t-33 -26.5t-50 6.5l-275 125q-49 22 -49 82z" />
<glyph unicode="&#xc9;" horiz-adv-x="1302" d="M176 102q0 56 45 86q15 10 15 35v987q0 25 -15 35q-45 30 -45 86q0 41 33 72t76 31h794q43 0 74 -31t31 -74q0 -42 -31 -72t-74 -30h-655q16 -14 16 -41v-385h527q47 0 73.5 -32t26 -70.5t-27 -70.5t-72.5 -32h-527v-348q0 -12 -4 -22.5t-8 -14.5l-4 -4h694 q46 0 72.5 -32.5t27 -71t-26 -71t-73.5 -32.5h-833q-43 0 -76 30.5t-33 71.5zM541.5 1679q3.5 25 23.5 43l232 193q23 20 53 20q46 0 76 -32.5t30 -79.5q0 -60 -49 -82l-274 -125q-29 -15 -50 -6.5t-33 26.5t-8.5 43z" />
<glyph unicode="&#xca;" horiz-adv-x="1302" d="M176 102q0 56 45 86q15 10 15 35v987q0 25 -15 35q-45 30 -45 86q0 41 33 72t76 31h794q43 0 74 -31t31 -74q0 -42 -31 -72t-74 -30h-655q16 -14 16 -41v-385h527q47 0 73.5 -32t26 -70.5t-27 -70.5t-72.5 -32h-527v-348q0 -12 -4 -22.5t-8 -14.5l-4 -4h694 q46 0 72.5 -32.5t27 -71t-26 -71t-73.5 -32.5h-833q-43 0 -76 30.5t-33 71.5zM438 1681.5q4 20.5 21 36.5l170 172q31 31 71 31q41 0 72 -31l170 -172q17 -16 21 -36.5t-3.5 -37t-22 -29.5t-34.5 -13.5t-41 10.5l-162 100l-161 -100q-21 -11 -41 -10.5t-34.5 13.5t-22 29.5 t-3.5 37z" />
<glyph unicode="&#xcb;" horiz-adv-x="1302" d="M176 102q0 56 45 86q15 10 15 35v987q0 25 -15 35q-45 30 -45 86q0 41 33 72t76 31h794q43 0 74 -31t31 -74q0 -42 -31 -72t-74 -30h-655q16 -14 16 -41v-385h527q47 0 73.5 -32t26 -70.5t-27 -70.5t-72.5 -32h-527v-348q0 -12 -4 -22.5t-8 -14.5l-4 -4h694 q46 0 72.5 -32.5t27 -71t-26 -71t-73.5 -32.5h-833q-43 0 -76 30.5t-33 71.5zM324 1739q0 54 40 92.5t97 38.5t97 -38.5t40 -92.5q0 -55 -40 -94t-97 -39t-97 39t-40 94zM786 1739q0 54 40.5 92.5t97.5 38.5t97 -38.5t40 -92.5q0 -55 -40 -94t-97 -39t-97.5 39t-40.5 94z " />
<glyph unicode="&#xcc;" horiz-adv-x="581" d="M82 1823q0 47 30 79.5t76 32.5q31 0 54 -20l231 -193q20 -18 24 -43t-8 -43t-33 -26.5t-50 6.5l-275 125q-49 22 -49 82zM188 102v1229q0 43 30 73t73 30q41 0 71.5 -30t30.5 -73v-1229q0 -41 -30.5 -71.5t-71.5 -30.5q-43 0 -73 30t-30 72z" />
<glyph unicode="&#xcd;" horiz-adv-x="581" d="M78.5 1679q3.5 25 23.5 43l232 193q23 20 53 20q46 0 76.5 -32.5t30.5 -79.5q0 -59 -50 -82l-274 -125q-29 -15 -50 -6.5t-33 26.5t-8.5 43zM188 102v1229q0 43 30 73t73 30q41 0 71.5 -30t30.5 -73v-1229q0 -41 -30.5 -71.5t-71.5 -30.5q-43 0 -73 30t-30 72z" />
<glyph unicode="&#xce;" horiz-adv-x="581" d="M28 1681.5q4 20.5 21 36.5l170 172q31 31 72 31q40 0 71 -31l170 -172q21 -20 22.5 -46t-13.5 -43.5t-38 -25.5t-50 9l-162 100l-162 -100q-21 -11 -41 -10.5t-34.5 13.5t-22 29.5t-3.5 37zM188 102v1229q0 43 30 73t73 30q41 0 71.5 -30t30.5 -73v-1229 q0 -41 -30.5 -71.5t-71.5 -30.5q-43 0 -73 30t-30 72z" />
<glyph unicode="&#xcf;" horiz-adv-x="581" d="M-78 1739q0 54 40 92.5t97 38.5t97.5 -38.5t40.5 -92.5q0 -55 -40.5 -94t-97.5 -39t-97 39t-40 94zM188 102v1229q0 43 30 73t73 30q41 0 71.5 -30t30.5 -73v-1229q0 -41 -30.5 -71.5t-71.5 -30.5q-43 0 -73 30t-30 72zM385 1739q0 54 40 92.5t97 38.5t97 -38.5t40 -92.5 q0 -55 -40 -94t-97 -39t-97 39t-40 94z" />
<glyph unicode="&#xd0;" horiz-adv-x="1527" d="M76 714.5q0 24.5 18 45t49 20.5h160v430q0 26 -14 35q-45 30 -45 86q0 41 32.5 72t75.5 31h312q353 0 553 -191q198 -187 198 -524q0 -204 -77 -369t-240 -260q-160 -90 -320 -90h-426q-43 0 -75.5 30.5t-32.5 71.5q0 56 45 86q14 9 14 35v426h-160q-31 0 -49 20.5 t-18 45zM492 205h286q117 6 217 65q113 66 163 185t50 264q0 250 -135 377q-139 131 -373 131h-208q16 -14 16 -41v-406h190q30 0 47.5 -20.5t17.5 -45t-17.5 -45t-47.5 -20.5h-190v-403q0 -12 -4 -22.5t-8 -14.5z" />
<glyph unicode="&#xd1;" horiz-adv-x="1601" d="M176 1333q0 46 31 73.5t74 27.5q46 0 76.5 -19.5t64.5 -60.5l641 -776l104 -154h2l-6 154v692q0 77 42.5 120.5t111.5 43.5q44 0 75 -29.5t31 -75.5q0 -24 -9 -47t-28 -33q-18 -11 -18 -35v-999q0 -25 10 -29q20 -10 33.5 -35t13.5 -51q0 -46 -30.5 -73t-73.5 -27 q-46 0 -76.5 19.5t-64.5 60.5l-641 776l-105 154h-2l6 -154v-698q0 -69 -43 -113.5t-110 -44.5q-44 0 -75.5 30t-31.5 76q0 54 37 80q18 11 18 35v998q0 24 -10 28q-20 10 -33.5 35t-13.5 51zM469 1743q33 74 88.5 120.5t126.5 49.5q38 -1 77.5 -18t65.5 -36t55 -35t50 -16 q27 0 47 50q9 21 30.5 34t45.5 13q51 0 75.5 -44t4.5 -87q-81 -150 -193 -150q-34 0 -73 17t-68 37.5t-61 37.5t-54 17q-9 0 -17.5 -5t-16 -17l-10 -16t-9.5 -18q-27 -55 -82 -55q-44 0 -72.5 41.5t-9.5 79.5z" />
<glyph unicode="&#xd2;" horiz-adv-x="1699" d="M113 719q0 -143 54.5 -277t150 -236.5t235 -164t299.5 -61.5q146 0 282 60t235 159.5t158.5 236t59.5 283.5q0 146 -59.5 282t-158.5 235t-235 158.5t-282 59.5q-147 0 -283.5 -59.5t-236 -158.5t-159.5 -235t-60 -282zM322 719q0 106 42 204t112.5 169t168 113t203.5 42 q144 0 266.5 -71t194 -192.5t71.5 -264.5q0 -144 -71 -266.5t-192.5 -193.5t-264.5 -71q-218 0 -374 156t-156 375zM647 1823q0 47 30.5 79.5t76.5 32.5q30 0 53 -20l231 -193q20 -18 24 -43t-8 -43t-33 -26.5t-50 6.5l-275 125q-49 22 -49 82z" />
<glyph unicode="&#xd3;" horiz-adv-x="1699" d="M113 719q0 146 60 282t159.5 235t236 158.5t283.5 59.5q146 0 282 -59.5t235 -158.5t158.5 -235t59.5 -282q0 -147 -59.5 -283.5t-158.5 -236t-235 -159.5t-282 -60q-160 0 -299.5 61.5t-235 164t-150 236.5t-54.5 277zM322 719q0 -219 156 -375t374 -156q143 0 264.5 71 t192.5 193.5t71 266.5q0 143 -71.5 264.5t-194 192.5t-266.5 71q-106 0 -203.5 -42t-168 -113t-112.5 -169t-42 -204zM672.5 1679q3.5 25 23.5 43l232 193q23 20 53 20q46 0 76 -32.5t30 -79.5q0 -60 -49 -82l-274 -125q-29 -15 -50 -6.5t-33 26.5t-8.5 43z" />
<glyph unicode="&#xd4;" horiz-adv-x="1699" d="M113 719q0 -143 54.5 -277t150 -236.5t235 -164t299.5 -61.5q146 0 282 60t235 159.5t158.5 236t59.5 283.5q0 146 -59.5 282t-158.5 235t-235 158.5t-282 59.5q-147 0 -283.5 -59.5t-236 -158.5t-159.5 -235t-60 -282zM322 719q0 106 42 204t112.5 169t168 113t203.5 42 q144 0 266.5 -71t194 -192.5t71.5 -264.5q0 -144 -71 -266.5t-192.5 -193.5t-264.5 -71q-218 0 -374 156t-156 375zM587 1681.5q4 20.5 21 36.5l170 172q31 31 72 31t72 -31l170 -172q17 -16 21 -36.5t-3.5 -37t-22 -29.5t-34.5 -13.5t-41 10.5l-162 100l-162 -100 q-21 -11 -41 -10.5t-34.5 13.5t-22 29.5t-3.5 37z" />
<glyph unicode="&#xd5;" horiz-adv-x="1699" d="M113 719q0 146 60 282t159.5 235t236 158.5t283.5 59.5q146 0 282 -59.5t235 -158.5t158.5 -235t59.5 -282q0 -147 -59.5 -283.5t-158.5 -236t-235 -159.5t-282 -60q-160 0 -299.5 61.5t-235 164t-150 236.5t-54.5 277zM322 719q0 -219 156 -375t374 -156q143 0 264.5 71 t192.5 193.5t71 266.5q0 143 -71.5 264.5t-194 192.5t-266.5 71q-106 0 -203.5 -42t-168 -113t-112.5 -169t-42 -204zM518 1743q33 74 88.5 120.5t126.5 49.5q38 -1 77.5 -18t65.5 -36t55 -35t50 -16q27 0 47 50q9 21 30.5 34t45.5 13q51 0 75.5 -44t4.5 -87 q-81 -150 -193 -150q-34 0 -73 17t-68 37.5t-61 37.5t-54 17q-9 0 -17.5 -5t-16 -17l-10 -16t-9.5 -18q-27 -55 -82 -55q-44 0 -72.5 41.5t-9.5 79.5z" />
<glyph unicode="&#xd6;" horiz-adv-x="1699" d="M113 719q0 146 60 282t159.5 235t236 158.5t283.5 59.5q146 0 282 -59.5t235 -158.5t158.5 -235t59.5 -282q0 -147 -59.5 -283.5t-158.5 -236t-235 -159.5t-282 -60q-160 0 -299.5 61.5t-235 164t-150 236.5t-54.5 277zM322 719q0 -219 156 -375t374 -156q143 0 264.5 71 t192.5 193.5t71 266.5q0 143 -71.5 264.5t-194 192.5t-266.5 71q-106 0 -203.5 -42t-168 -113t-112.5 -169t-42 -204zM481 1739q0 54 40 92.5t97 38.5t97.5 -38.5t40.5 -92.5q0 -55 -40.5 -94t-97.5 -39t-97 39t-40 94zM944 1739q0 54 40 92.5t97 38.5t97.5 -38.5 t40.5 -92.5q0 -55 -40.5 -94t-97.5 -39t-97 39t-40 94z" />
<glyph unicode="&#xd7;" horiz-adv-x="960" d="M168.5 357q-0.5 40 26.5 69l147 145l-143 144q-29 29 -30.5 69t26.5 68q33 30 71 31.5t68 -27.5l147 -145l142 143q29 28 71 28t68 -26q29 -29 30.5 -70t-26.5 -69l-148 -146l144 -143q29 -32 30 -70.5t-26 -68.5q-33 -28 -71 -29.5t-68 27.5l-146 145l-143 -143 q-31 -27 -71 -28t-68 26q-30 30 -30.5 70z" />
<glyph unicode="&#xd8;" horiz-adv-x="1699" d="M113 719q0 200 98.5 369t267.5 267.5t369 98.5q189 0 356 -90l43 66q20 30 53 30q26 0 47 -19t21 -46q0 -21 -12 -39l-45 -66q128 -103 202 -252.5t74 -318.5q0 -151 -58.5 -288t-157 -235.5t-235.5 -157t-288 -58.5q-180 0 -352 90l-45 -70q-17 -29 -54 -29 q-29 0 -48 19.5t-19 46.5q0 20 10 37l47 71q-128 101 -201 251.5t-73 322.5zM317 719q0 -119 49 -224.5t134 -179.5l587 877q-111 57 -239 57q-143 0 -265.5 -71t-194 -193t-71.5 -266zM612 242q110 -58 236 -58q145 0 268 71.5t194.5 195t71.5 268.5q0 116 -48.5 221 t-133.5 180z" />
<glyph unicode="&#xd9;" horiz-adv-x="1529" d="M154 1329q0 46 30 75.5t74 29.5q68 0 111 -43.5t43 -112.5v-780q0 -117 101.5 -205t223.5 -88h58q119 0 221 88t102 203v782q0 69 43 112.5t111 43.5q44 0 74 -29.5t30 -75.5q0 -23 -9.5 -47.5t-25.5 -32.5q-18 -11 -18 -35v-714q0 -133 -76 -249.5t-197.5 -183.5 t-254.5 -67h-58q-133 0 -255 66.5t-198.5 182t-76.5 247.5v718q0 24 -19 35q-16 8 -25 32.5t-9 47.5zM555 1823q0 47 30.5 79.5t76.5 32.5q30 0 53 -20l231 -193q20 -18 24 -43t-8 -43t-33 -26.5t-50 6.5l-275 125q-49 22 -49 82z" />
<glyph unicode="&#xda;" horiz-adv-x="1529" d="M154 1329q0 46 30 75.5t74 29.5q68 0 111 -43.5t43 -112.5v-780q0 -117 101.5 -205t223.5 -88h58q119 0 221 88t102 203v782q0 69 43 112.5t111 43.5q44 0 74 -29.5t30 -75.5q0 -23 -9.5 -47.5t-25.5 -32.5q-18 -11 -18 -35v-714q0 -133 -76 -249.5t-197.5 -183.5 t-254.5 -67h-58q-133 0 -255 66.5t-198.5 182t-76.5 247.5v718q0 24 -19 35q-16 8 -25 32.5t-9 47.5zM558 1679q4 25 24 43l231 193q23 20 53 20q46 0 76.5 -32.5t30.5 -79.5q0 -60 -49 -82l-275 -125q-29 -15 -50 -6.5t-33 26.5t-8 43z" />
<glyph unicode="&#xdb;" horiz-adv-x="1529" d="M154 1329q0 46 30 75.5t74 29.5q68 0 111 -43.5t43 -112.5v-780q0 -117 101.5 -205t223.5 -88h58q119 0 221 88t102 203v782q0 69 43 112.5t111 43.5q44 0 74 -29.5t30 -75.5q0 -23 -9.5 -47.5t-25.5 -32.5q-18 -11 -18 -35v-714q0 -133 -76 -249.5t-197.5 -183.5 t-254.5 -67h-58q-133 0 -255 66.5t-198.5 182t-76.5 247.5v718q0 24 -19 35q-16 8 -25 32.5t-9 47.5zM501 1681.5q4 20.5 21 36.5l170 172q31 31 72 31t72 -31l170 -172q17 -16 21 -36.5t-3.5 -37t-22 -29.5t-34.5 -13.5t-41 10.5l-162 100l-162 -100q-21 -11 -41 -10.5 t-34.5 13.5t-22 29.5t-3.5 37z" />
<glyph unicode="&#xdc;" horiz-adv-x="1529" d="M154 1329q0 46 30 75.5t74 29.5q68 0 111 -43.5t43 -112.5v-780q0 -117 101.5 -205t223.5 -88h58q119 0 221 88t102 203v782q0 69 43 112.5t111 43.5q44 0 74 -29.5t30 -75.5q0 -23 -9.5 -47.5t-25.5 -32.5q-18 -11 -18 -35v-714q0 -133 -76 -249.5t-197.5 -183.5 t-254.5 -67h-58q-133 0 -255 66.5t-198.5 182t-76.5 247.5v718q0 24 -19 35q-16 8 -25 32.5t-9 47.5zM395 1739q0 54 40 92.5t97 38.5t97.5 -38.5t40.5 -92.5q0 -55 -40.5 -94t-97.5 -39t-97 39t-40 94zM858 1739q0 54 40 92.5t97 38.5t97.5 -38.5t40.5 -92.5 q0 -55 -40.5 -94t-97.5 -39t-97 39t-40 94z" />
<glyph unicode="&#xdd;" horiz-adv-x="1286" d="M76 1335q5 43 41 72.5t90 26.5q82 -8 139 -105l240 -420l55 -131h2l57 131l240 420q57 97 139 105q54 3 90 -26.5t41 -72.5q2 -37 -17.5 -70.5t-59.5 -37.5q-12 -2 -25 -19l-363 -626v-480q0 -42 -30 -72t-72 -30t-72 30t-30 72v480l-363 626q-13 17 -24 19 q-40 4 -60 37.5t-18 70.5zM435 1679q4 25 24 43l231 193q23 20 53 20q46 0 76.5 -32.5t30.5 -79.5q0 -60 -49 -82l-275 -125q-29 -15 -50 -6.5t-33 26.5t-8 43z" />
<glyph unicode="&#xde;" horiz-adv-x="1298" d="M176 102q0 48 35 78q12 9 12 27v1020q0 17 -12 26q-35 30 -35 78q0 43 30 73t73 30q57 0 100 -43q49 -46 49 -134v-124h373q175 0 298.5 -124.5t123.5 -299.5q0 -83 -33 -160.5t-88.5 -135t-133 -92t-161.5 -34.5h-379v-111q0 -87 -49 -133q-43 -43 -105 -43 q-41 0 -69.5 30t-28.5 72zM428 492h373q89 0 153 64t64 153t-64 153t-153 64h-373v-434z" />
<glyph unicode="&#xdf;" horiz-adv-x="1314" d="M178 -53q0 27 9 47t19 26l9 7q18 11 18 34v953q0 108 56 205t151 156t201 59h86q112 0 208.5 -52t155 -145.5t58.5 -206.5q0 -90 -32.5 -168.5t-102.5 -105.5q66 -19 114.5 -81t69.5 -131t21 -132q0 -177 -119.5 -295.5t-300.5 -118.5h-152q-42 0 -70 29t-28 73 q0 42 28.5 71.5t69.5 29.5h146q97 -5 162 54t65 157q0 103 -69.5 160t-174.5 57q-43 0 -72.5 28.5t-29.5 71.5q0 40 28.5 68t69.5 28q75 0 125.5 64.5t50.5 142.5q0 92 -64 147.5t-163 55.5h-57q-85 0 -155.5 -63.5t-70.5 -147.5v-1026q0 -69 -42.5 -112.5t-110.5 -43.5 q-44 0 -75.5 29.5t-31.5 75.5z" />
<glyph unicode="&#xe0;" horiz-adv-x="1097" d="M55 352q0 90 34 159t93.5 109t131.5 60t155 20q133 0 254 -59q0 76 -15 125.5t-45.5 73.5t-64.5 32.5t-84 8.5q-62 0 -113.5 -7.5t-72.5 -14.5l-21 -7q-48 -17 -88.5 9t-40.5 75q0 36 21 63.5t53 36.5q132 39 252 39q210 0 317 -94.5t107 -269.5v-490q0 -28 18 -39 q4 -2 10 -6.5t15.5 -24.5t9.5 -47q0 -45 -30.5 -74.5t-76.5 -29.5q-63 0 -103.5 34t-41.5 93q-102 -137 -272 -137q-105 0 -195.5 42.5t-148.5 127t-58 192.5zM260 350q0 -77 60 -119.5t139 -42.5q62 0 120.5 23.5t99.5 71.5t44 110v82q-47 33 -103 47.5t-98 14.5 q-51 0 -94.5 -8.5t-83 -28.5t-62 -58t-22.5 -92zM309 1446q0 47 30.5 80t76.5 33q29 0 53 -21l231 -192q20 -18 24 -43.5t-8 -43t-33 -26.5t-50 6l-275 125q-49 22 -49 82z" />
<glyph unicode="&#xe1;" horiz-adv-x="1097" d="M55 352q0 90 34 159t93.5 109t131.5 60t155 20q133 0 254 -59q0 76 -15 125.5t-45.5 73.5t-64.5 32.5t-84 8.5q-62 0 -113.5 -7.5t-72.5 -14.5l-21 -7q-48 -17 -88.5 9t-40.5 75q0 36 21 63.5t53 36.5q132 39 252 39q210 0 317 -94.5t107 -269.5v-490q0 -28 18 -39 q4 -2 10 -6.5t15.5 -24.5t9.5 -47q0 -45 -30.5 -74.5t-76.5 -29.5q-63 0 -103.5 34t-41.5 93q-102 -137 -272 -137q-105 0 -195.5 42.5t-148.5 127t-58 192.5zM260 350q0 -77 60 -119.5t139 -42.5q62 0 120.5 23.5t99.5 71.5t44 110v82q-47 33 -103 47.5t-98 14.5 q-51 0 -94.5 -8.5t-83 -28.5t-62 -58t-22.5 -92zM320.5 1302.5q3.5 25.5 23.5 43.5l231 192q24 21 54 21q46 0 76 -33t30 -80q0 -60 -49 -82l-274 -125q-29 -15 -50 -6t-33 26.5t-8.5 43z" />
<glyph unicode="&#xe2;" horiz-adv-x="1097" d="M55 352q0 90 34 159t93.5 109t131.5 60t155 20q133 0 254 -59q0 76 -15 125.5t-45.5 73.5t-64.5 32.5t-84 8.5q-62 0 -113.5 -7.5t-72.5 -14.5l-21 -7q-48 -17 -88.5 9t-40.5 75q0 36 21 63.5t53 36.5q132 39 252 39q210 0 317 -94.5t107 -269.5v-490q0 -28 18 -39 q4 -2 10 -6.5t15.5 -24.5t9.5 -47q0 -45 -30.5 -74.5t-76.5 -29.5q-63 0 -103.5 34t-41.5 93q-102 -137 -272 -137q-105 0 -195.5 42.5t-148.5 127t-58 192.5zM260 350q0 -77 60 -119.5t139 -42.5q62 0 120.5 23.5t99.5 71.5t44 110v82q-47 33 -103 47.5t-98 14.5 q-51 0 -94.5 -8.5t-83 -28.5t-62 -58t-22.5 -92zM272 1306.5q4 20.5 21 36.5l170 173q30 30 72 30q41 0 71 -30l170 -173q17 -16 21 -36.5t-3.5 -37t-22 -29.5t-34.5 -13.5t-41 10.5l-161 100l-162 -100q-21 -11 -41 -10.5t-34.5 13.5t-22 29.5t-3.5 37z" />
<glyph unicode="&#xe3;" horiz-adv-x="1097" d="M55 352q0 90 34 159t93.5 109t131.5 60t155 20q133 0 254 -59q0 76 -15 125.5t-45.5 73.5t-64.5 32.5t-84 8.5q-62 0 -113.5 -7.5t-72.5 -14.5l-21 -7q-48 -17 -88.5 9t-40.5 75q0 36 21 63.5t53 36.5q132 39 252 39q210 0 317 -94.5t107 -269.5v-490q0 -28 18 -39 q4 -2 10 -6.5t15.5 -24.5t9.5 -47q0 -45 -30.5 -74.5t-76.5 -29.5q-63 0 -103.5 34t-41.5 93q-102 -137 -272 -137q-105 0 -195.5 42.5t-148.5 127t-58 192.5zM223 1366q33 74 88.5 120.5t126.5 49.5q48 -2 97 -28t87.5 -51t63.5 -25q27 0 47 49q9 21 30.5 34t45.5 13 q51 0 75.5 -44t4.5 -87q-81 -150 -193 -150q-43 0 -93 27.5t-93 54.5t-70 27q-9 0 -17.5 -5t-16 -17l-10 -16t-9.5 -18q-27 -55 -82 -55q-44 0 -72.5 41.5t-9.5 79.5zM260 350q0 -77 60 -119.5t139 -42.5q62 0 120.5 23.5t99.5 71.5t44 110v82q-47 33 -103 47.5t-98 14.5 q-51 0 -94.5 -8.5t-83 -28.5t-62 -58t-22.5 -92z" />
<glyph unicode="&#xe4;" horiz-adv-x="1097" d="M55 352q0 90 34 159t93.5 109t131.5 60t155 20q133 0 254 -59q0 76 -15 125.5t-45.5 73.5t-64.5 32.5t-84 8.5q-62 0 -113.5 -7.5t-72.5 -14.5l-21 -7q-48 -17 -88.5 9t-40.5 75q0 36 21 63.5t53 36.5q132 39 252 39q210 0 317 -94.5t107 -269.5v-490q0 -28 18 -39 q4 -2 10 -6.5t15.5 -24.5t9.5 -47q0 -45 -30.5 -74.5t-76.5 -29.5q-63 0 -103.5 34t-41.5 93q-102 -137 -272 -137q-105 0 -195.5 42.5t-148.5 127t-58 192.5zM131 1362q0 54 40 92.5t97 38.5t97.5 -38.5t40.5 -92.5q0 -55 -40.5 -94t-97.5 -39t-97 39t-40 94zM260 350 q0 -77 60 -119.5t139 -42.5q62 0 120.5 23.5t99.5 71.5t44 110v82q-47 33 -103 47.5t-98 14.5q-51 0 -94.5 -8.5t-83 -28.5t-62 -58t-22.5 -92zM594 1362q0 54 40 92.5t97 38.5t97 -38.5t40 -92.5q0 -55 -40 -94t-97 -39t-97 39t-40 94z" />
<glyph unicode="&#xe5;" horiz-adv-x="1097" d="M55 352q0 90 34 159t93.5 109t131.5 60t155 20q133 0 254 -59q0 76 -15 125.5t-45.5 73.5t-64.5 32.5t-84 8.5q-62 0 -113.5 -7.5t-72.5 -14.5l-21 -7q-48 -17 -88.5 9t-40.5 75q0 36 21 63.5t53 36.5q132 39 252 39q210 0 317 -94.5t107 -269.5v-490q0 -28 18 -39 q4 -2 10 -6.5t15.5 -24.5t9.5 -47q0 -45 -30.5 -74.5t-76.5 -29.5q-63 0 -103.5 34t-41.5 93q-102 -137 -272 -137q-105 0 -195.5 42.5t-148.5 127t-58 192.5zM260 350q0 -77 60 -119.5t139 -42.5q62 0 120.5 23.5t99.5 71.5t44 110v82q-47 33 -103 47.5t-98 14.5 q-51 0 -94.5 -8.5t-83 -28.5t-62 -58t-22.5 -92zM369 1346q0 75 57 125.5t125 50.5q73 0 127.5 -49t54.5 -127q0 -80 -55.5 -128.5t-126.5 -48.5q-67 0 -124.5 50.5t-57.5 126.5zM449 1346q0 -42 31 -68.5t71 -26.5t72 25.5t32 69.5t-31 69t-73 25q-39 0 -70.5 -26 t-31.5 -68z" />
<glyph unicode="&#xe6;" horiz-adv-x="1812" d="M55 350q0 90 34 159t93.5 109t131.5 60t155 20q133 0 254 -59q0 73 -15 120.5t-45 71t-63.5 31.5t-83.5 8q-62 0 -114 -5.5t-74 -10.5l-21 -6q-45 -12 -87 16.5t-42 77.5q0 36 21 63.5t53 36.5q112 33 252 33q263 0 366 -153q150 163 369 163q144 0 261.5 -75t182 -198.5 t64.5 -266.5q0 -43 -35.5 -76t-77.5 -33h-694q33 -107 117 -176.5t184 -69.5q155 0 270 80q38 23 66 23q42 0 74 -34t32 -77q0 -28 -11.5 -50t-22.5 -30l-11 -8q-174 -114 -399 -114q-255 0 -436 233q-17 -34 -32 -58t-45.5 -58.5t-64.5 -55.5t-87.5 -37t-116.5 -16 q-105 0 -195.5 42.5t-148.5 127t-58 192.5zM260 348q0 -77 60 -119.5t139 -42.5q99 0 181.5 63t82.5 159v63q-47 33 -103.5 48.5t-97.5 15.5q-51 0 -94.5 -8.5t-83 -28.5t-62 -58t-22.5 -92zM946 596h584q-19 116 -99 193t-188 77q-109 0 -189.5 -76t-107.5 -194z" />
<glyph unicode="&#xe7;" horiz-adv-x="1101" d="M86 530q0 113 44 216t118.5 177t176.5 118t214 44q196 0 334 -114q43 -30 43 -82q0 -44 -30.5 -75.5t-72.5 -31.5q-40 0 -67 21q-89 71 -205 71q-143 -2 -243.5 -102.5t-100.5 -241.5q0 -138 100.5 -239t241.5 -101q114 0 207 72q28 19 65 19q42 0 73.5 -31.5t31.5 -73.5 t-43 -82q-67 -53 -153 -83.5t-177 -30.5v-33q90 0 141.5 -42.5t51.5 -117.5q0 -90 -71 -138t-167 -48q-111 0 -180 69q-19 19 -19 45q0 25 19 45.5t45 20.5q23 0 43 -17q33 -30 84 -30q39 0 66.5 16t27.5 49q0 53 -94 64q-27 3 -44.5 21t-17.5 42q0 15 13 64 q-195 34 -325 186.5t-130 353.5z" />
<glyph unicode="&#xe8;" horiz-adv-x="1175" d="M86 530q0 143 65 267.5t183.5 201t261.5 76.5q141 0 256 -74.5t178.5 -196.5t63.5 -263q0 -42 -31.5 -73.5t-77.5 -31.5h-682q23 -107 111 -179.5t194 -72.5q136 0 256 64q34 18 62 18q45 0 74.5 -26t29.5 -68q0 -28 -14 -54t-43 -40q-90 -49 -172.5 -68.5t-194.5 -19.5 q-147 0 -267 75t-186.5 198.5t-66.5 266.5zM303 594h571q-12 116 -89.5 196t-184.5 80q-111 0 -196.5 -79t-100.5 -197zM426 1446q0 47 30 80t76 33q30 0 54 -21l231 -192q20 -18 24 -43.5t-8 -43t-33 -26.5t-50 6l-275 125q-49 22 -49 82z" />
<glyph unicode="&#xe9;" horiz-adv-x="1175" d="M86 530q0 143 65 267.5t183.5 201t261.5 76.5q141 0 256 -74.5t178.5 -196.5t63.5 -263q0 -42 -31.5 -73.5t-77.5 -31.5h-682q23 -107 111 -179.5t194 -72.5q136 0 256 64q34 18 62 18q45 0 74.5 -26t29.5 -68q0 -28 -14 -54t-43 -40q-90 -49 -172.5 -68.5t-194.5 -19.5 q-147 0 -267 75t-186.5 198.5t-66.5 266.5zM303 594h571q-12 116 -89.5 196t-184.5 80q-111 0 -196.5 -79t-100.5 -197zM398 1302.5q4 25.5 24 43.5l231 192q24 21 54 21q46 0 76 -33t30 -80q0 -60 -49 -82l-275 -125q-29 -15 -50 -6t-33 26.5t-8 43z" />
<glyph unicode="&#xea;" horiz-adv-x="1175" d="M86 530q0 143 65 267.5t183.5 201t261.5 76.5q141 0 256 -74.5t178.5 -196.5t63.5 -263q0 -42 -31.5 -73.5t-77.5 -31.5h-682q23 -107 111 -179.5t194 -72.5q136 0 256 64q34 18 62 18q45 0 74.5 -26t29.5 -68q0 -28 -14 -54t-43 -40q-90 -49 -172.5 -68.5t-194.5 -19.5 q-147 0 -267 75t-186.5 198.5t-66.5 266.5zM303 594h571q-12 116 -89.5 196t-184.5 80q-111 0 -196.5 -79t-100.5 -197zM325 1306.5q4 20.5 21 36.5l170 173q30 30 72 30q41 0 71 -30l170 -173q21 -20 22.5 -46t-13.5 -43.5t-38 -25.5t-50 9l-162 100l-162 -100 q-21 -11 -41 -10.5t-34.5 13.5t-22 29.5t-3.5 37z" />
<glyph unicode="&#xeb;" horiz-adv-x="1175" d="M86 530q0 143 65 267.5t183.5 201t261.5 76.5q141 0 256 -74.5t178.5 -196.5t63.5 -263q0 -42 -31.5 -73.5t-77.5 -31.5h-682q23 -107 111 -179.5t194 -72.5q136 0 256 64q34 18 62 18q45 0 74.5 -26t29.5 -68q0 -28 -14 -54t-43 -40q-90 -49 -172.5 -68.5t-194.5 -19.5 q-147 0 -267 75t-186.5 198.5t-66.5 266.5zM236 1362q0 54 40 92.5t97 38.5t97 -38.5t40 -92.5q0 -55 -40 -94t-97 -39t-97 39t-40 94zM303 594h571q-12 116 -89.5 196t-184.5 80q-111 0 -196.5 -79t-100.5 -197zM698 1362q0 54 40.5 92.5t97.5 38.5t97 -38.5t40 -92.5 q0 -55 -40 -94t-97 -39t-97.5 39t-40.5 94z" />
<glyph unicode="&#xec;" d="M51 1446q0 47 30.5 80t76.5 33q29 0 53 -21l231 -192q20 -18 24 -43.5t-8 -43t-33 -26.5t-50 6l-275 125q-49 22 -49 82zM106 958q0 46 31.5 75.5t75.5 29.5q68 0 111 -43.5t43 -112.5v-688q0 -24 18 -35q4 -2 10 -7t16.5 -25.5t10.5 -47.5q0 -46 -31.5 -75t-75.5 -29 q-68 0 -110.5 43.5t-42.5 112.5v688q0 24 -19 35q-4 2 -10 6.5t-16.5 25t-10.5 47.5z" />
<glyph unicode="&#xed;" d="M31.5 1302.5q3.5 25.5 23.5 43.5l232 192q24 21 53 21q46 0 76 -33t30 -80q0 -60 -49 -82l-274 -125q-29 -15 -50 -6t-33 26.5t-8.5 43zM106 958q0 46 31.5 75.5t75.5 29.5q68 0 111 -43.5t43 -112.5v-688q0 -24 18 -35q4 -2 10 -7t16.5 -25.5t10.5 -47.5 q0 -46 -31.5 -75t-75.5 -29q-68 0 -110.5 43.5t-42.5 112.5v688q0 24 -19 35q-4 2 -10 6.5t-16.5 25t-10.5 47.5z" />
<glyph unicode="&#xee;" d="M-12.5 1303.5q-2.5 25.5 20.5 46.5l156 166q30 30 72 30q36 0 71 -30l156 -166q21 -20 20.5 -47t-17.5 -45.5t-41.5 -27t-51.5 8.5l-137 98l-138 -98q-25 -15 -52 -8.5t-41.5 27t-17 46zM106 958q0 46 31.5 75.5t75.5 29.5q68 0 111 -43.5t43 -112.5v-688q0 -24 18 -35 q4 -2 10 -7t16.5 -25.5t10.5 -47.5q0 -46 -31.5 -75t-75.5 -29q-68 0 -110.5 43.5t-42.5 112.5v688q0 24 -19 35q-4 2 -10 6.5t-16.5 25t-10.5 47.5z" />
<glyph unicode="&#xef;" d="M-90 1362q0 54 40 92.5t97 38.5t97 -38.5t40 -92.5q0 -55 -40 -94t-97 -39t-97 39t-40 94zM106 958q0 46 31.5 75.5t75.5 29.5q68 0 111 -43.5t43 -112.5v-688q0 -24 18 -35q4 -2 10 -7t16.5 -25.5t10.5 -47.5q0 -46 -31.5 -75t-75.5 -29q-68 0 -110.5 43.5t-42.5 112.5 v688q0 24 -19 35q-4 2 -10 6.5t-16.5 25t-10.5 47.5zM311 1362q0 54 40.5 92.5t97.5 38.5t97 -38.5t40 -92.5q0 -55 -40 -94t-97 -39t-97.5 39t-40.5 94z" />
<glyph unicode="&#xf0;" horiz-adv-x="1243" d="M82 530q0 146 72 270t195 195.5t267 71.5t269 -74q-67 131 -201 221q-28 22 -61 39l-115 -69q-17 -10 -35 -10q-24 0 -42.5 17.5t-18.5 43.5q0 38 32 57l39 25q-4 1 -33.5 11t-46.5 15q-30 9 -48.5 36t-18.5 59q0 41 27.5 69.5t66.5 28.5q20 0 35 -6q115 -36 221 -92 l109 65q13 8 30 8q27 0 45.5 -17.5t18.5 -43.5q0 -34 -31 -55l-51 -31q6 -6 22 -18q166 -127 247 -317t81 -408q0 -73 -10 -158q-25 -198 -176.5 -332.5t-354.5 -134.5q-144 0 -267 72t-195 195t-72 267zM285 530q0 -136 97.5 -233.5t233.5 -97.5q138 0 236 97t98 234 q0 139 -98 237.5t-236 98.5q-137 0 -234 -98.5t-97 -237.5z" />
<glyph unicode="&#xf1;" horiz-adv-x="1308" d="M117 104q0 27 9.5 47t18.5 27l9 6q18 11 18 35v627q0 24 -18 35q-4 2 -10 7t-16.5 25.5t-10.5 47.5q0 46 31 75t75 29q63 0 104.5 -37.5t47.5 -99.5q50 61 135 104t158 43q245 0 357 -120.5t112 -374.5v-361q0 -24 18 -35q4 -2 10 -7t16.5 -25.5t10.5 -47.5 q0 -46 -31.5 -75t-75.5 -29q-68 0 -110.5 43.5t-42.5 112.5v436q0 130 -75.5 204t-203.5 74q-114 0 -195 -82.5t-81 -185.5v-446q0 -69 -43 -112.5t-111 -43.5q-44 0 -75 29t-31 75zM334 1366q33 74 88.5 120.5t126.5 49.5q48 -2 97 -28t87.5 -51t63.5 -25q27 0 47 49 q9 21 30.5 34t45.5 13q51 0 75 -44t4 -87q-81 -150 -192 -150q-43 0 -93 27.5t-93 54.5t-70 27q-9 0 -17.5 -5t-16 -17l-10 -16t-9.5 -18q-27 -55 -82 -55q-44 0 -72.5 41.5t-9.5 79.5z" />
<glyph unicode="&#xf2;" horiz-adv-x="1257" d="M86 532q0 147 73.5 272t198.5 198t271 73q147 0 272 -73t197.5 -198t72.5 -272q0 -146 -72.5 -271t-197.5 -198t-272 -73q-146 0 -271 73t-198.5 198t-73.5 271zM291 532q0 -139 99 -238t239 -99t239 99t99 238q0 141 -99 239.5t-239 98.5t-239 -98.5t-99 -239.5z M420 1446q0 47 30 80t76 33q30 0 54 -21l231 -192q20 -18 23.5 -43.5t-8.5 -43t-33 -26.5t-50 6l-274 125q-49 22 -49 82z" />
<glyph unicode="&#xf3;" horiz-adv-x="1257" d="M86 532q0 147 73.5 272t198.5 198t271 73q147 0 272 -73t197.5 -198t72.5 -272q0 -146 -72.5 -271t-197.5 -198t-272 -73q-146 0 -271 73t-198.5 198t-73.5 271zM291 532q0 -139 99 -238t239 -99t239 99t99 238q0 141 -99 239.5t-239 98.5t-239 -98.5t-99 -239.5z M422.5 1302.5q3.5 25.5 23.5 43.5l232 192q24 21 53 21q46 0 76.5 -33t30.5 -80q0 -59 -50 -82l-274 -125q-29 -15 -50 -6t-33 26.5t-8.5 43z" />
<glyph unicode="&#xf4;" horiz-adv-x="1257" d="M86 532q0 147 73.5 272t198.5 198t271 73q147 0 272 -73t197.5 -198t72.5 -272q0 -146 -72.5 -271t-197.5 -198t-272 -73q-146 0 -271 73t-198.5 198t-73.5 271zM291 532q0 -139 99 -238t239 -99t239 99t99 238q0 141 -99 239.5t-239 98.5t-239 -98.5t-99 -239.5z M366 1306.5q4 20.5 21 36.5l170 173q30 30 72 30q41 0 71 -30l170 -173q21 -20 22.5 -46t-13.5 -43.5t-38 -25.5t-50 9l-162 100l-162 -100q-21 -11 -41 -10.5t-34.5 13.5t-22 29.5t-3.5 37z" />
<glyph unicode="&#xf5;" horiz-adv-x="1257" d="M86 532q0 147 73.5 272t198.5 198t271 73q147 0 272 -73t197.5 -198t72.5 -272q0 -146 -72.5 -271t-197.5 -198t-272 -73q-146 0 -271 73t-198.5 198t-73.5 271zM291 532q0 -139 99 -238t239 -99t239 99t99 238q0 141 -99 239.5t-239 98.5t-239 -98.5t-99 -239.5z M297 1366q33 74 88.5 120.5t126.5 49.5q48 -2 97 -28t87.5 -51t63.5 -25q27 0 47 49q9 21 30.5 34t45.5 13q51 0 75.5 -44t4.5 -87q-81 -150 -193 -150q-43 0 -93 27.5t-93 54.5t-70 27q-9 0 -17.5 -5t-16 -17l-10 -16t-9.5 -18q-27 -55 -82 -55q-44 0 -72.5 41.5t-9.5 79.5 z" />
<glyph unicode="&#xf6;" horiz-adv-x="1257" d="M86 532q0 147 73.5 272t198.5 198t271 73q147 0 272 -73t197.5 -198t72.5 -272q0 -146 -72.5 -271t-197.5 -198t-272 -73q-146 0 -271 73t-198.5 198t-73.5 271zM260 1362q0 54 40 92.5t97 38.5t97.5 -38.5t40.5 -92.5q0 -55 -40.5 -94t-97.5 -39t-97 39t-40 94zM291 532 q0 -139 99 -238t239 -99t239 99t99 238q0 141 -99 239.5t-239 98.5t-239 -98.5t-99 -239.5zM723 1362q0 54 40 92.5t97 38.5t97 -38.5t40 -92.5q0 -55 -40 -94t-97 -39t-97 39t-40 94z" />
<glyph unicode="&#xf7;" horiz-adv-x="1105" d="M94 571q0 40 28.5 70.5t67.5 30.5h721q41 0 71 -29t30 -72q0 -39 -29 -67.5t-68 -28.5h-720q-40 0 -70 27.5t-31 68.5zM410 184q0 60 42 102t101 42q60 0 102.5 -42.5t42.5 -101.5q0 -60 -42.5 -102.5t-102.5 -42.5t-101.5 42.5t-41.5 102.5zM410 965q0 60 42 101.5 t101 41.5q60 0 102.5 -41.5t42.5 -101.5t-42.5 -103t-102.5 -43t-101.5 43t-41.5 103z" />
<glyph unicode="&#xf8;" horiz-adv-x="1257" d="M86 532q0 147 73.5 272t198.5 198t271 73q128 0 239 -57l66 100q15 24 36.5 33t39.5 2t32.5 -21t14.5 -37t-15 -46l-65 -101q91 -76 142.5 -184.5t51.5 -231.5q0 -146 -72.5 -271t-197.5 -198t-272 -73q-131 0 -238 55l-65 -100q-29 -40 -68.5 -36.5t-52 36t9.5 71.5 l66 101q-91 77 -143 185t-52 230zM291 532q0 -142 102 -241l363 557q-59 24 -127 24q-140 0 -239 -99.5t-99 -240.5zM504 217q61 -22 125 -22q140 0 240 99t100 238q0 142 -105 244z" />
<glyph unicode="&#xf9;" horiz-adv-x="1308" d="M117 961q0 46 31 75t75 29q68 0 111 -43.5t43 -112.5v-393q0 -156 68.5 -233.5t228.5 -77.5q116 0 187 69t71 187v448q0 69 42.5 112.5t110.5 43.5q44 0 75.5 -29t31.5 -75q0 -27 -9 -47t-19 -26l-9 -7q-18 -11 -18 -35v-627q0 -24 18 -35q4 -2 10 -7t16.5 -25.5 t10.5 -47.5q0 -46 -31.5 -75t-75.5 -29q-67 0 -107 41t-40 106q-33 -66 -120 -106.5t-163 -40.5q-255 0 -369 128.5t-114 387.5v330q0 24 -18 35q-4 2 -10 7t-16.5 25.5t-10.5 47.5zM430 1446q0 47 30.5 80t76.5 33q29 0 53 -21l231 -192q20 -18 24 -43.5t-8 -43t-33 -26.5 t-50 6l-275 125q-49 22 -49 82z" />
<glyph unicode="&#xfa;" horiz-adv-x="1308" d="M117 961q0 46 31 75t75 29q68 0 111 -43.5t43 -112.5v-393q0 -156 68.5 -233.5t228.5 -77.5q116 0 187 69t71 187v448q0 69 42.5 112.5t110.5 43.5q44 0 75.5 -29t31.5 -75q0 -27 -9 -47t-19 -26l-9 -7q-18 -11 -18 -35v-627q0 -24 18 -35q4 -2 10 -7t16.5 -25.5 t10.5 -47.5q0 -46 -31.5 -75t-75.5 -29q-67 0 -107 41t-40 106q-33 -66 -120 -106.5t-163 -40.5q-255 0 -369 128.5t-114 387.5v330q0 24 -18 35q-4 2 -10 7t-16.5 25.5t-10.5 47.5zM474 1302.5q4 25.5 24 43.5l231 192q24 21 53 21q46 0 76.5 -33t30.5 -80q0 -60 -49 -82 l-275 -125q-29 -15 -50 -6t-33 26.5t-8 43z" />
<glyph unicode="&#xfb;" horiz-adv-x="1308" d="M117 961q0 46 31 75t75 29q68 0 111 -43.5t43 -112.5v-393q0 -156 68.5 -233.5t228.5 -77.5q116 0 187 69t71 187v448q0 69 42.5 112.5t110.5 43.5q44 0 75.5 -29t31.5 -75q0 -27 -9 -47t-19 -26l-9 -7q-18 -11 -18 -35v-627q0 -24 18 -35q4 -2 10 -7t16.5 -25.5 t10.5 -47.5q0 -46 -31.5 -75t-75.5 -29q-67 0 -107 41t-40 106q-33 -66 -120 -106.5t-163 -40.5q-255 0 -369 128.5t-114 387.5v330q0 24 -18 35q-4 2 -10 7t-16.5 25.5t-10.5 47.5zM397 1306.5q4 20.5 21 36.5l170 173q30 30 71 30q42 0 72 -30l170 -173q17 -16 21 -36.5 t-3.5 -37t-22 -29.5t-34.5 -13.5t-41 10.5l-162 100l-161 -100q-21 -11 -41 -10.5t-34.5 13.5t-22 29.5t-3.5 37z" />
<glyph unicode="&#xfc;" horiz-adv-x="1308" d="M117 961q0 46 31 75t75 29q68 0 111 -43.5t43 -112.5v-393q0 -156 68.5 -233.5t228.5 -77.5q116 0 187 69t71 187v448q0 69 42.5 112.5t110.5 43.5q44 0 75.5 -29t31.5 -75q0 -27 -9 -47t-19 -26l-9 -7q-18 -11 -18 -35v-627q0 -24 18 -35q4 -2 10 -7t16.5 -25.5 t10.5 -47.5q0 -46 -31.5 -75t-75.5 -29q-67 0 -107 41t-40 106q-33 -66 -120 -106.5t-163 -40.5q-255 0 -369 128.5t-114 387.5v330q0 24 -18 35q-4 2 -10 7t-16.5 25.5t-10.5 47.5zM285 1362q0 54 40 92.5t97 38.5t97 -38.5t40 -92.5q0 -55 -40 -94t-97 -39t-97 39t-40 94z M748 1362q0 54 40 92.5t97 38.5t97 -38.5t40 -92.5q0 -55 -40 -94t-97 -39t-97 39t-40 94z" />
<glyph unicode="&#xfd;" horiz-adv-x="1198" d="M78 913q-24 63 16.5 106.5t104.5 43.5q46 0 83 -27.5t56 -74.5l180 -467l74 -248h6l80 248l180 467q20 49 57.5 75.5t85.5 26.5q62 0 101.5 -44.5t15.5 -105.5q-10 -25 -26 -40t-26 -17l-11 -2q-23 -4 -29 -25l-311 -804q-142 -373 -365 -373q-70 0 -168 37 q-29 10 -47 38t-18 58q0 53 44.5 82t94.5 6q50 -20 86 -20q83 0 145 127l9 18l-23 55l-303 776q-6 21 -29 25q-4 0 -11.5 2t-24.5 17t-27 40zM431 1302.5q4 25.5 24 43.5l231 192q24 21 53 21q46 0 76.5 -33t30.5 -80q0 -60 -49 -82l-275 -125q-29 -15 -50 -6t-33 26.5 t-8 43z" />
<glyph unicode="&#xfe;" horiz-adv-x="1341" d="M178 -244q0 27 9 47t19 27l9 6q18 11 18 35v1343q0 24 -18 35q-4 2 -10 7t-16.5 25.5t-10.5 47.5q0 46 31.5 75.5t75.5 29.5q68 0 110.5 -43.5t42.5 -112.5v-373q59 86 144.5 128t179.5 42q140 0 254 -74t176.5 -199.5t62.5 -275.5q0 -105 -35 -200t-97.5 -167.5 t-156 -115.5t-204.5 -43q-86 0 -177.5 42.5t-146.5 133.5v-369q0 -69 -42.5 -112t-110.5 -43q-44 0 -75.5 29t-31.5 75zM436 537q0 -134 87 -233t222 -99q125 0 214.5 97t89.5 235q0 151 -87.5 241t-216.5 90q-127 0 -218 -96.5t-91 -234.5z" />
<glyph unicode="&#xff;" horiz-adv-x="1198" d="M78 913q-24 63 16.5 106.5t104.5 43.5q46 0 83 -27.5t56 -74.5l180 -467l74 -248h6l80 248l180 467q20 49 57.5 75.5t85.5 26.5q62 0 101.5 -44.5t15.5 -105.5q-10 -25 -26 -40t-26 -17l-11 -2q-23 -4 -29 -25l-311 -804q-142 -373 -365 -373q-70 0 -168 37 q-29 10 -47 38t-18 58q0 53 44.5 82t94.5 6q50 -20 86 -20q83 0 145 127l9 18l-23 55l-303 776q-6 21 -29 25q-4 0 -11.5 2t-24.5 17t-27 40zM229 1362q0 54 40.5 92.5t97.5 38.5t97 -38.5t40 -92.5q0 -55 -40 -94t-97 -39t-97.5 39t-40.5 94zM692 1362q0 54 40 92.5 t97 38.5t97.5 -38.5t40.5 -92.5q0 -55 -40.5 -94t-97.5 -39t-97 39t-40 94z" />
<glyph unicode="&#x152;" horiz-adv-x="2056" d="M113 717q0 184 97 349.5t263 266.5t356 101h1002q43 0 73.5 -31t30.5 -74t-30.5 -72.5t-73.5 -29.5h-590q12 -7 12 -62v-364h465q39 0 71 -29.5t32 -71.5q0 -43 -30 -73.5t-73 -30.5h-465v-330q0 -51 -12 -61h629q42 0 72 -30.5t30 -72.5t-30 -72t-72 -30h-1045h-28 q-138 0 -265.5 61.5t-218.5 161t-145.5 230t-54.5 264.5zM317 717q0 -212 150 -362t362 -150h191q13 0 20 5t8 10t1 13v963q0 31 -29 31h-191q-139 0 -257 -68t-186.5 -185.5t-68.5 -256.5z" />
<glyph unicode="&#x153;" horiz-adv-x="2183" d="M86 532q0 147 73.5 272t198.5 198t271 73q165 0 301 -93t198 -243q59 149 185 242.5t286 93.5q141 0 256 -74t178.5 -195.5t63.5 -262.5q0 -41 -34 -73t-74 -32h-682q33 -105 114.5 -173t180.5 -68q156 0 264 79q35 21 65 21q51 0 81.5 -36.5t25.5 -84.5t-45 -76 q-86 -61 -181 -85.5t-213 -24.5q-161 0 -285.5 90.5t-183.5 236.5q-2 0 -2 5q-62 -148 -198 -240t-301 -92q-146 0 -271 73t-198.5 198t-73.5 271zM291 532q0 -140 99.5 -239.5t238.5 -99.5q140 0 240 100t100 239q0 141 -100 240.5t-240 99.5t-239 -99.5t-99 -240.5z M1313 594h571q-14 119 -93 198.5t-187 79.5t-190 -80t-101 -198z" />
<glyph unicode="&#x178;" horiz-adv-x="1286" d="M76 1335q5 43 41 72.5t90 26.5q82 -8 139 -105l240 -420l55 -131h2l57 131l240 420q57 97 139 105q54 3 90 -26.5t41 -72.5q2 -37 -17.5 -70.5t-59.5 -37.5q-12 -2 -25 -19l-363 -626v-480q0 -42 -30 -72t-72 -30t-72 30t-30 72v480l-363 626q-13 17 -24 19 q-40 4 -60 37.5t-18 70.5zM274 1739q0 54 40.5 92.5t97.5 38.5t97 -38.5t40 -92.5q0 -55 -40 -94t-97 -39t-97.5 39t-40.5 94zM737 1739q0 54 40 92.5t97 38.5t97.5 -38.5t40.5 -92.5q0 -55 -40.5 -94t-97.5 -39t-97 39t-40 94z" />
<glyph unicode="&#x2c6;" horiz-adv-x="1032" d="M253 1304.5q4 20.5 21 36.5l170 172q31 31 72 31t72 -31l170 -172q17 -16 21 -36.5t-3.5 -37t-22 -29.5t-34.5 -13.5t-41 10.5l-162 100l-162 -100q-21 -11 -41 -10.5t-34.5 13.5t-22 29.5t-3.5 37z" />
<glyph unicode="&#x2dc;" horiz-adv-x="1038" d="M186 1366q33 74 88.5 120.5t126.5 49.5q48 -2 97 -28t87.5 -51t63.5 -25q27 0 47 49q9 21 30.5 34t45.5 13q51 0 75.5 -44t4.5 -87q-81 -150 -193 -150q-43 0 -93 27.5t-93 54.5t-70 27q-9 0 -17.5 -5t-16 -17l-10 -16t-9.5 -18q-27 -55 -82 -55q-44 0 -72.5 41.5 t-9.5 79.5z" />
<glyph unicode="&#x2000;" horiz-adv-x="967" />
<glyph unicode="&#x2001;" horiz-adv-x="1935" />
<glyph unicode="&#x2002;" horiz-adv-x="967" />
<glyph unicode="&#x2003;" horiz-adv-x="1935" />
<glyph unicode="&#x2004;" horiz-adv-x="645" />
<glyph unicode="&#x2005;" horiz-adv-x="483" />
<glyph unicode="&#x2006;" horiz-adv-x="322" />
<glyph unicode="&#x2007;" horiz-adv-x="322" />
<glyph unicode="&#x2008;" horiz-adv-x="241" />
<glyph unicode="&#x2009;" horiz-adv-x="387" />
<glyph unicode="&#x200a;" horiz-adv-x="107" />
<glyph unicode="&#x2010;" horiz-adv-x="942" d="M98 569q0 42 28.5 71.5t68.5 29.5h548q41 0 71 -27.5t30 -67.5q0 -42 -27.5 -72t-66.5 -30h-551q-40 0 -70.5 28.5t-30.5 67.5z" />
<glyph unicode="&#x2011;" horiz-adv-x="942" d="M98 569q0 42 28.5 71.5t68.5 29.5h548q41 0 71 -27.5t30 -67.5q0 -42 -27.5 -72t-66.5 -30h-551q-40 0 -70.5 28.5t-30.5 67.5z" />
<glyph unicode="&#x2012;" horiz-adv-x="942" d="M98 569q0 42 28.5 71.5t68.5 29.5h548q41 0 71 -27.5t30 -67.5q0 -42 -27.5 -72t-66.5 -30h-551q-40 0 -70.5 28.5t-30.5 67.5z" />
<glyph unicode="&#x2013;" horiz-adv-x="1349" d="M98 569q0 42 28.5 71.5t68.5 29.5h956q41 0 70.5 -27.5t29.5 -67.5q0 -42 -27.5 -72t-66.5 -30h-958q-40 0 -70.5 28.5t-30.5 67.5z" />
<glyph unicode="&#x2014;" horiz-adv-x="1761" d="M98 569q0 42 28.5 71.5t68.5 29.5h1368q41 0 70.5 -27.5t29.5 -67.5q0 -42 -27.5 -72t-66.5 -30h-1370q-40 0 -70.5 28.5t-30.5 67.5z" />
<glyph unicode="&#x2018;" d="M121 1169q0 102 65 184.5t164 135.5q17 10 41 10q26 0 45 -17t19 -42q0 -39 -43 -64q-52 -31 -92 -82t-41 -104q24 12 38 12q53 0 86 -36.5t33 -86.5q0 -55 -43.5 -93t-99.5 -38q-79 0 -125.5 69.5t-46.5 151.5z" />
<glyph unicode="&#x2019;" d="M121 1010q0 38 43 63q52 31 92 82.5t41 104.5q-26 -13 -39 -13q-53 0 -86 36.5t-33 86.5q0 55 44 93t100 38q79 0 125.5 -69.5t46.5 -151.5q0 -102 -65.5 -184t-164.5 -135q-19 -11 -41 -11q-26 0 -44.5 17.5t-18.5 42.5z" />
<glyph unicode="&#x201a;" d="M74 -238q0 39 43 64q52 31 92 82t41 104q-24 -12 -39 -12q-53 0 -86 36.5t-33 86.5q0 55 44 93t100 38q79 0 125.5 -69.5t46.5 -151.5q0 -102 -65.5 -184.5t-164.5 -135.5q-17 -10 -41 -10q-26 0 -44.5 17t-18.5 42z" />
<glyph unicode="&#x201c;" horiz-adv-x="1032" d="M121 1169q0 102 65 184.5t164 135.5q32 20 68.5 4t36.5 -53q0 -39 -43 -64q-52 -31 -92 -82t-41 -104q24 12 38 12q53 0 86 -36.5t33 -86.5q0 -55 -43.5 -93t-99.5 -38q-79 0 -125.5 69.5t-46.5 151.5zM614 1169q0 102 65.5 184.5t164.5 135.5q32 20 68 4t36 -53 q0 -39 -43 -64q-52 -31 -92 -82t-41 -104q24 12 39 12q53 0 86 -36.5t33 -86.5q0 -55 -44 -93t-100 -38q-79 0 -125.5 69.5t-46.5 151.5z" />
<glyph unicode="&#x201d;" horiz-adv-x="1011" d="M121 1008q0 38 43 63q52 31 92 82t41 104q-24 -12 -39 -12q-53 0 -86 36.5t-33 86.5q0 55 44 93t100 38q79 0 125.5 -69.5t46.5 -151.5q0 -102 -65.5 -184.5t-164.5 -135.5q-32 -20 -68 -3.5t-36 53.5zM594 1008q0 38 43 63q52 31 92 82t41 104q-24 -12 -39 -12 q-53 0 -86 36.5t-33 86.5q0 55 44 93t100 38q79 0 125.5 -69.5t46.5 -151.5q0 -102 -65.5 -184.5t-164.5 -135.5q-32 -20 -68 -3.5t-36 53.5z" />
<glyph unicode="&#x201e;" horiz-adv-x="1032" d="M74 -238q0 39 43 64q52 31 92 82t41 104q-24 -12 -39 -12q-53 0 -86 36.5t-33 86.5q0 55 44 93t100 38q79 0 125.5 -69.5t46.5 -151.5q0 -102 -65.5 -184.5t-164.5 -135.5q-17 -10 -41 -10q-26 0 -44.5 17t-18.5 42zM567 -238q0 39 43 64q52 31 92 82t41 104 q-24 -12 -38 -12q-53 0 -86 36.5t-33 86.5q0 55 43.5 93t99.5 38q79 0 125.5 -69.5t46.5 -151.5q0 -102 -65 -184.5t-164 -135.5q-18 -10 -41 -10q-26 0 -45 17t-19 42z" />
<glyph unicode="&#x2022;" horiz-adv-x="833" d="M190 719q0 91 68 157t160 66t158.5 -66.5t66.5 -160.5q0 -91 -66.5 -156t-158.5 -65q-93 0 -160.5 66t-67.5 159z" />
<glyph unicode="&#x2026;" horiz-adv-x="1509" d="M131 145q0 63 44 107.5t106 44.5q63 0 107 -44.5t44 -107.5q0 -62 -44 -105.5t-107 -43.5q-62 0 -106 44t-44 105zM590 145q0 63 43.5 107.5t105.5 44.5q63 0 107.5 -44.5t44.5 -107.5q0 -62 -44.5 -105.5t-107.5 -43.5q-61 0 -105 44t-44 105zM1077 145q0 63 44 107.5 t106 44.5q63 0 107 -44.5t44 -107.5q0 -62 -44 -105.5t-107 -43.5q-62 0 -106 44t-44 105z" />
<glyph unicode="&#x202f;" horiz-adv-x="387" />
<glyph unicode="&#x2039;" horiz-adv-x="755" d="M76 532q0 33 24 64l389 418q27 30 70 30q38 0 66 -25.5t28 -66.5q0 -36 -22 -61l-314 -359l314 -358q22 -25 22 -63t-26.5 -65.5t-65.5 -27.5q-42 0 -72 33l-389 420q-24 24 -24 61z" />
<glyph unicode="&#x203a;" horiz-adv-x="753" d="M100 111q0 37 23 63l313 358l-313 359q-23 26 -23 61q0 41 28 66.5t67 25.5q42 0 69 -30l389 -418q25 -32 25 -64q0 -36 -25 -61l-389 -420q-30 -33 -71 -33q-39 0 -66 28t-27 65z" />
<glyph unicode="&#x205f;" horiz-adv-x="483" />
<glyph unicode="&#x20ac;" horiz-adv-x="1527" d="M76 580q0 28 18.5 46.5t44.5 18.5h150q-6 71 0 143h-150q-26 0 -44.5 19t-18.5 47t18.5 47t44.5 19h172q18 69 54 137q86 169 249 269t361 108q197 6 368 -86q37 -21 49.5 -61t-8.5 -77q-20 -37 -59.5 -49t-77.5 8q-123 66 -264 60q-235 -10 -371 -164q-56 -65 -86 -145 h430q27 0 46.5 -19.5t19.5 -46.5t-19.5 -46.5t-46.5 -19.5h-462q-9 -72 0 -143h462q27 0 46.5 -19t19.5 -46q0 -26 -20 -45t-46 -19h-430q30 -81 86 -147q136 -154 371 -164q164 -6 299 78q34 23 75 13.5t64 -44.5t14 -76t-44 -63q-184 -119 -416 -113q-199 9 -361.5 109 t-248.5 268q-37 69 -54 139h-172q-26 0 -44.5 19t-18.5 45z" />
<glyph unicode="&#x2122;" horiz-adv-x="1402" d="M8 1382q0 22 14.5 37t36.5 15h551q22 0 41 -11t27 -21l8 -11l272 -435l271 435q22 43 69 43q22 0 37 -15t15 -37t-21 -39q-6 -6 -6 -14v-495q0 -9 6 -15q21 -21 21 -41q0 -22 -15 -36.5t-37 -14.5q-34 0 -55.5 23.5t-21.5 60.5v352l-217 -336q-17 -26 -43 -26 q-31 0 -48 26l-217 336v-352q0 -33 -22.5 -58.5t-55.5 -25.5q-22 0 -36.5 14.5t-14.5 36.5q0 20 21 41q6 6 6 15v497h-229v-555q0 -22 -15 -36.5t-37 -14.5q-20 0 -34.5 14.5t-14.5 36.5v555h-205q-22 0 -36.5 14.5t-14.5 36.5z" />
<glyph unicode="&#x25fc;" horiz-adv-x="1064" d="M0 0v1065h1065v-1065h-1065z" />
</font>
</defs>
</svg>
